<?xml version="1.0" standalone="no"?>
<!DOCTYPE svg PUBLIC "-//W3C//DTD SVG 1.1//EN" "http://www.w3.org/Graphics/SVG/1.1/DTD/svg11.dtd" >
<svg xmlns="http://www.w3.org/2000/svg">
<metadata></metadata>
<defs>
<font id="soho_gothic_promedium" horiz-adv-x="1300" >
<font-face units-per-em="2048" ascent="1612" descent="-436" />
<missing-glyph horiz-adv-x="401" />
<glyph horiz-adv-x="2048" />
<glyph horiz-adv-x="2048" />
<glyph unicode="&#xd;" horiz-adv-x="2048" />
<glyph unicode=" "  horiz-adv-x="401" />
<glyph unicode="&#x09;" horiz-adv-x="401" />
<glyph unicode="&#xa0;" horiz-adv-x="401" />
<glyph unicode="!" horiz-adv-x="616" d="M160 1591h297l-25 -1159h-246zM170 0v313h276v-313h-276z" />
<glyph unicode="&#x22;" horiz-adv-x="839" d="M41 1049l51 520h250l-106 -520h-195zM496 1049l53 520h250l-109 -520h-194z" />
<glyph unicode="#" horiz-adv-x="1546" d="M152 379v199h208l37 346h-245v196h268l45 402h229l-43 -402h310l47 402h229l-43 -402h199v-196h-222l-38 -346h260v-199h-281l-43 -379h-229l41 379h-312l-43 -379h-229l43 379h-188zM590 578h313l37 346h-311z" />
<glyph unicode="$" horiz-adv-x="1323" d="M133 1151q0 176 101 272t305 121v215h241v-211q200 -8 357 -45v-209q-256 27 -445 27q-140 0 -207 -36.5t-67 -125.5q0 -74 38.5 -118t149.5 -89l238 -98q183 -76 263.5 -175.5t80.5 -268.5q0 -189 -104 -298t-304 -135v-231h-241v225q-113 4 -217 17t-152 26v211 q254 -24 459 -24q139 0 205.5 47t66.5 149q0 74 -40.5 122.5t-151.5 96.5l-242 103q-171 71 -252.5 167t-81.5 265z" />
<glyph unicode="%" horiz-adv-x="2275" d="M109 1028v88q0 434 380 434q201 0 290 -112.5t89 -321.5v-88q0 -208 -89.5 -321t-289.5 -113q-380 0 -380 434zM324 1028q0 -147 38 -202.5t127 -55.5t127.5 56t38.5 202v88q0 148 -38.5 204t-127.5 56q-88 0 -126.5 -58t-38.5 -202v-88zM514 0l993 1524h244l-995 -1524 h-242zM1401 410v92q0 212 96.5 321t286.5 109q188 0 284.5 -109.5t96.5 -320.5v-92q0 -212 -96.5 -322.5t-284.5 -110.5q-189 0 -286 110.5t-97 322.5zM1616 410q0 -75 12 -127t35.5 -79t52.5 -38.5t68 -11.5q80 0 123 55.5t43 200.5v92q0 76 -12 128t-35.5 79t-51.5 38 t-67 11q-82 0 -125 -55t-43 -201v-92z" />
<glyph unicode="&#x26;" horiz-adv-x="1593" d="M111 375v14q0 136 68.5 227.5t219.5 176.5l-16 16q-107 107 -157 192.5t-50 194.5v8q0 348 490 348q230 0 467 -49v-203q-259 23 -451 23q-115 0 -172 -31t-57 -116q0 -67 31 -115t124 -137l508 -496q58 119 58 313l-105 17v160h436v-160l-104 -17q0 -290 -127 -479 l211 -203v-59h-283l-102 94q-169 -125 -451 -125q-92 0 -169.5 12.5t-147 42t-117.5 75.5t-76 116t-28 160zM391 375q0 -101 77.5 -151t195.5 -50q181 0 288 74l-389 370q-93 -48 -132.5 -97.5t-39.5 -131.5v-14z" />
<glyph unicode="'" horiz-adv-x="382" d="M41 1049l51 520h250l-106 -520h-195z" />
<glyph unicode="(" horiz-adv-x="772" d="M127 545v14q0 158 29 309.5t77.5 273t100.5 213.5t110 167h252q-146 -214 -223.5 -445.5t-77.5 -517.5v-14q0 -287 77 -517.5t224 -443.5h-252q-58 75 -110 167t-100.5 213.5t-77.5 272t-29 308.5z" />
<glyph unicode=")" horiz-adv-x="772" d="M76 -416q147 211 224 442t77 519v14q0 287 -77 518.5t-224 444.5h252q58 -75 109.5 -167.5t100 -213.5t77 -272.5t28.5 -309.5v-14q0 -158 -28.5 -308.5t-77 -271.5t-100 -213.5t-109.5 -167.5h-252z" />
<glyph unicode="*" horiz-adv-x="1107" d="M125 1200l63 207l134 -43q87 -27 141 -57q-12 102 -12 147v137h206v-137q0 -66 -16 -151q55 30 143 59l136 45l63 -207l-135 -43q-75 -25 -150 -33q48 -48 101 -112l84 -109l-168 -127l-82 109q-40 54 -80 129q-34 -64 -80 -127l-82 -111l-168 127l84 111q41 56 101 110 q-73 11 -150 35z" />
<glyph unicode="+" horiz-adv-x="1411" d="M176 682v223h426v414h209v-414h422v-223h-422v-414h-209v414h-426z" />
<glyph unicode="," horiz-adv-x="641" d="M53 -188l193 505h293l-256 -505h-230z" />
<glyph unicode="-" horiz-adv-x="790" d="M135 496v213h520v-213h-520z" />
<glyph unicode="." horiz-adv-x="567" d="M147 0v315h273v-315h-273z" />
<glyph unicode="/" horiz-adv-x="927" d="M29 0l600 1522h268l-596 -1522h-272z" />
<glyph unicode="0" horiz-adv-x="1376" d="M109 647v225q0 333 146.5 506.5t432.5 173.5t433 -173.5t147 -506.5v-225q0 -333 -147 -506.5t-433 -173.5t-432.5 173.5t-146.5 506.5zM395 647q0 -125 21 -212.5t61.5 -136.5t91.5 -70t119 -21q69 0 120 21t91 70t61 136.5t21 212.5v225q0 125 -21 212.5t-61 136.5 t-91.5 70.5t-119.5 21.5t-119 -21.5t-91.5 -70.5t-61.5 -136.5t-21 -212.5v-225z" />
<glyph unicode="1" horiz-adv-x="1193" d="M115 1155v229l420 146h204v-1299l340 -14v-217h-962v217l340 14v1022z" />
<glyph unicode="2" horiz-adv-x="1269" d="M119 0v190q0 108 16.5 190t48 146.5t90 121t129.5 103.5t179 105q181 96 236.5 155t55.5 146q0 93 -68.5 129.5t-240.5 36.5q-216 0 -413 -27v199q86 24 209.5 40.5t240.5 16.5q290 0 425.5 -92t135.5 -291q0 -154 -89 -263.5t-318 -227.5q-121 -62 -185.5 -103.5 t-106 -90t-53.5 -97t-12 -127.5v-22h742v-238h-1022z" />
<glyph unicode="3" horiz-adv-x="1277" d="M137 31v198q220 -30 441 -30q164 0 234.5 46.5t70.5 182.5v41q0 51 -8 84t-32.5 62t-73.5 43t-126 14h-428v217h428q62 0 106 11t69.5 28t40.5 45.5t19.5 56.5t4.5 68v24q0 117 -64 158t-244 41q-175 0 -434 -27v201q51 16 193 36.5t264 20.5q291 0 430 -93.5t139 -319.5 v-25q0 -108 -44 -196t-138 -136q182 -89 182 -323v-41q0 -242 -140 -346.5t-429 -104.5q-126 0 -260.5 21t-200.5 43z" />
<glyph unicode="4" horiz-adv-x="1396" d="M90 367v235l725 920h270v-930h218v-225h-218v-367h-284v367h-711zM336 592h473v582z" />
<glyph unicode="5" horiz-adv-x="1255" d="M100 23v204q18 -2 79 -8t106.5 -10t112 -8t122.5 -4q189 0 264.5 52t75.5 189v47q0 87 -28 134.5t-100.5 70.5t-207.5 23h-401l67 809h904v-236h-670l-33 -352h176q314 0 446 -104.5t132 -342.5v-47q0 -251 -147.5 -362t-436.5 -111q-137 0 -263 18.5t-198 37.5z" />
<glyph unicode="6" horiz-adv-x="1351" d="M109 588v360q0 119 17 210t59 167.5t110 125t171 75t241 26.5q230 0 462 -53v-205q-253 27 -438 27q-66 0 -116 -8t-86 -21t-61 -36.5t-39.5 -48.5t-22.5 -63.5t-10.5 -74t-2.5 -86.5v-59q62 17 153 27t161 10q94 0 166.5 -9.5t144 -37t118 -73.5t75 -123t28.5 -181v-74 q0 -114 -34.5 -203.5t-89 -143t-129.5 -88.5t-147.5 -48t-152.5 -13q-108 0 -193 18t-158.5 61.5t-122 113.5t-76 177.5t-27.5 250.5zM393 545q0 -105 19.5 -175.5t59 -109.5t91 -54.5t125.5 -15.5q120 0 194 67.5t74 205.5v65q0 72 -17 118t-54.5 70.5t-84 33t-118.5 8.5 q-158 0 -289 -29v-184z" />
<glyph unicode="7" horiz-adv-x="1241" d="M94 1286v236h1063v-265l-668 -1257h-307l699 1286h-787z" />
<glyph unicode="8" horiz-adv-x="1400" d="M117 436v17q0 120 40.5 199t125.5 134q-162 102 -162 322v20q0 103 31.5 180t82.5 123t128.5 74t155.5 37.5t177 9.5h9q81 0 147.5 -7t134 -23.5t118.5 -48t91 -77t61 -113.5t21 -155v-20q0 -220 -162 -322q86 -56 127 -134.5t41 -198.5v-17q0 -90 -17 -161.5t-45 -120.5 t-73 -84t-90.5 -54.5t-109.5 -31t-118 -14.5t-126 -3h-9q-72 0 -126 3t-118 14.5t-109.5 31t-90.5 54.5t-73 84t-45 120.5t-17 161.5zM397 440q0 -81 20.5 -133.5t63.5 -78.5t92 -35t123 -9h9q73 0 121.5 9t91 35t63 78.5t20.5 133.5v15q-2 124 -43 176.5t-147 52.5h-223 q-107 0 -149 -53t-42 -176v-15zM401 1102q0 -105 41.5 -157t145.5 -52h223q104 0 145 52t41 157v20q0 64 -20.5 107t-62 65t-90.5 30.5t-119 8.5h-9q-56 0 -98 -5t-80.5 -18.5t-63 -37t-39 -61t-14.5 -89.5v-20z" />
<glyph unicode="9" horiz-adv-x="1351" d="M109 983v72q0 114 34.5 203.5t89 143.5t129 89t148 48t152.5 13q108 0 193 -17.5t159 -60.5t122 -112t75.5 -175.5t27.5 -248.5v-365q0 -119 -17 -209.5t-58 -167t-108.5 -126t-170.5 -76.5t-242 -27q-131 0 -262 17.5t-201 35.5v205q280 -28 443 -28q75 0 130.5 9.5 t91.5 31.5t58.5 48t34 68.5t15 82.5t3.5 100v59q-62 -17 -152.5 -27t-160.5 -10q-94 0 -167 9.5t-144.5 37t-118 73.5t-75.5 123t-29 181zM391 989q0 -71 17.5 -116.5t55.5 -69.5t85 -32.5t119 -8.5q157 0 288 29v182q0 106 -19 176.5t-59 109.5t-91 54.5t-125 15.5 q-120 0 -195.5 -68t-75.5 -204v-68z" />
<glyph unicode=":" horiz-adv-x="585" d="M156 0v317h272v-317h-272zM156 836v317h272v-317h-272z" />
<glyph unicode=";" horiz-adv-x="610" d="M4 -188l178 505h297l-250 -505h-225zM184 836v317h273v-317h-273z" />
<glyph unicode="&#x3c;" horiz-adv-x="1411" d="M252 795l584 532h321l-582 -532l582 -535h-321z" />
<glyph unicode="=" horiz-adv-x="1411" d="M225 422v225h959v-225h-959zM225 938v227h959v-227h-959z" />
<glyph unicode="&#x3e;" horiz-adv-x="1411" d="M252 260l582 535l-582 532h321l584 -532l-584 -535h-321z" />
<glyph unicode="?" horiz-adv-x="1038" d="M63 1362v199q178 57 392 57q228 0 342 -81t114 -257v-16q0 -103 -46.5 -190t-166.5 -204q-93 -92 -136.5 -153t-54.5 -103.5t-11 -113.5v-66h-246v66q0 73 5 119.5t23 100t54.5 103.5t97.5 111q105 105 141.5 166t36.5 127v14q0 81 -53 110t-174 29q-84 0 -318 -18z M240 0v315h270v-315h-270z" />
<glyph unicode="@" horiz-adv-x="1708" d="M102 350q0 150 27 299q66 359 271.5 533t560.5 174q335 0 514.5 -154.5t179.5 -445.5q0 -119 -23.5 -216t-79 -180.5t-141 -140.5t-214.5 -89t-296 -32q-229 0 -333.5 76.5t-104.5 245.5q0 167 27 281t83.5 181t134 95.5t187.5 28.5q179 0 354 -43l-67 -658 q303 73 303 453q0 459 -533 459q-282 0 -442 -143t-215 -449q-25 -131 -25 -275q0 -111 27.5 -191.5t89 -139.5t165 -88t251.5 -29q103 0 220 6.5t155 11.5v-115q-188 -32 -375 -32q-363 0 -532 147t-169 430zM678 418q0 -85 45 -117.5t156 -32.5q48 0 77 2l54 549 q-33 4 -121 4q-43 0 -72.5 -8t-58 -32.5t-44.5 -68t-26 -117.5t-10 -179z" />
<glyph unicode="A" horiz-adv-x="1443" d="M47 0l461 1522h428l461 -1522h-301l-131 426h-490l-135 -426h-293zM528 662h381l-127 419q-28 91 -53 240h-18q-34 -173 -54 -240z" />
<glyph unicode="B" horiz-adv-x="1382" d="M162 0v1522q302 12 448 12q130 0 226 -10t181.5 -37t138.5 -73t83.5 -119.5t30.5 -174.5v-18q0 -104 -48 -190t-145 -130q102 -42 151.5 -128.5t49.5 -192.5v-21q0 -93 -22 -165.5t-66.5 -121.5t-101.5 -82t-137 -51t-162 -25t-187 -7q-151 0 -440 12zM440 223h78 q97 0 145 1t115 7t98 19.5t64 37.5t45 61.5t12 90.5v23q-1 53 -15 90.5t-46.5 67.5t-91.5 44.5t-144 14.5h-260v-457zM440 887h258q87 0 145 13.5t90 41.5t45 63.5t13 86.5v18q0 43 -10.5 74.5t-35 52t-53 33t-76.5 18.5t-92.5 8t-113.5 2h-170v-411z" />
<glyph unicode="C" horiz-adv-x="1202" d="M106 659v203q0 160 30.5 280.5t85 198t137.5 125.5t178.5 67t218.5 19q91 0 206.5 -13.5t176.5 -27.5v-227q-238 19 -365 19q-100 0 -168 -20t-117.5 -69t-72.5 -135.5t-23 -216.5v-203q0 -130 23 -216.5t72.5 -136t117.5 -69.5t168 -20q128 0 365 19v-230 q-59 -14 -174.5 -26.5t-208.5 -12.5q-123 0 -218.5 19.5t-178.5 67.5t-137.5 125.5t-85 198.5t-30.5 281z" />
<glyph unicode="D" horiz-adv-x="1445" d="M162 0v1522q276 12 475 12q365 0 533.5 -167.5t168.5 -506.5v-192q0 -345 -165 -512.5t-537 -167.5q-199 0 -475 12zM442 229h189q225 0 324.5 97.5t99.5 341.5v192q0 124 -24.5 207t-78.5 132.5t-130.5 70t-190.5 20.5h-189v-1061z" />
<glyph unicode="E" horiz-adv-x="1236" d="M162 0v1522h968v-238h-681v-387h638v-229h-638v-432h681v-236h-968z" />
<glyph unicode="F" horiz-adv-x="1216" d="M162 0v1522h968v-240h-681v-385h638v-229h-638v-668h-287z" />
<glyph unicode="G" horiz-adv-x="1370" d="M106 653v215q0 122 19.5 221t52.5 169t82.5 123t103.5 85t121 52t129.5 27t135.5 7q148 0 294 -18t195 -33v-219q-257 21 -440 21q-81 0 -138.5 -8.5t-111.5 -35.5t-86.5 -74t-52 -126.5t-19.5 -190.5v-215q0 -129 23 -214.5t72 -134t115 -68t163 -19.5q126 0 205 6v588 h272v-797q-219 -47 -498 -47q-111 0 -200.5 18t-173 65t-140 123t-90 197.5t-33.5 282.5z" />
<glyph unicode="H" horiz-adv-x="1562" d="M162 0v1522h287v-607h665v607h287v-1522h-287v670h-665v-670h-287z" />
<glyph unicode="I" horiz-adv-x="610" d="M162 0v1522h287v-1522h-287z" />
<glyph unicode="J" horiz-adv-x="608" d="M-90 -227q43 -2 125 -2t104.5 30t22.5 115v1606h284v-1598q0 -195 -82.5 -280.5t-277.5 -85.5q-120 0 -176 16v199z" />
<glyph unicode="K" horiz-adv-x="1404" d="M170 0v1522h287v-709l585 709h344l-628 -750l624 -772h-360l-565 717v-717h-287z" />
<glyph unicode="L" horiz-adv-x="1146" d="M162 0v1522h287v-1280h645v-242h-932z" />
<glyph unicode="M" horiz-adv-x="1751" d="M162 0v1522h311l305 -596q25 -49 92 -193h4q50 114 95 197l309 592h311v-1522h-278v844q0 102 10 262h-4q-19 -45 -105 -211l-225 -428h-227l-221 428q-18 35 -52 106t-51 105h-4q8 -192 8 -262v-844h-278z" />
<glyph unicode="N" horiz-adv-x="1517" d="M162 0v1522h332l485 -885q89 -169 117 -231h4q-8 120 -8 288v828h264v-1522h-334l-487 903q-81 154 -115 227h-4q8 -172 8 -272v-858h-262z" />
<glyph unicode="O" horiz-adv-x="1464" d="M106 672v178q0 358 163 530t462 172t463 -172t164 -530v-178q0 -360 -163.5 -532.5t-463.5 -172.5t-462.5 172.5t-162.5 532.5zM391 672q0 -245 88 -351t252 -106q165 0 253.5 106t88.5 351v176q0 244 -88 349.5t-254 105.5q-165 0 -252.5 -105.5t-87.5 -349.5v-176z" />
<glyph unicode="P" horiz-adv-x="1327" d="M162 0v1522q181 10 428 10q85 0 154.5 -5t140.5 -18.5t125 -36t102.5 -59.5t79.5 -86t49.5 -118t18.5 -154v-23q0 -86 -18 -156t-49 -120t-78.5 -87t-101 -60t-122 -37.5t-135.5 -19.5t-148 -5q-109 0 -168 2v-549h-278zM440 791q79 -3 164 -3q100 0 165 10t115 36.5 t72.5 75t22.5 122.5v23q0 39 -7.5 70t-17 54.5t-33 41t-40.5 29.5t-56.5 19.5t-65 11.5t-81 6t-89 2.5t-104.5 0.5h-4h-41v-499z" />
<glyph unicode="Q" horiz-adv-x="1464" d="M106 668v184q0 357 164 528.5t461 171.5q298 0 462.5 -171.5t164.5 -528.5v-184q0 -308 -129 -480.5t-365 -207.5v-86q0 -53 22.5 -68.5t104.5 -15.5h172v-179q-36 -11 -114.5 -20.5t-151.5 -9.5t-125 12t-94 42.5t-63 88.5t-21 145v93q-235 36 -361.5 207.5 t-126.5 478.5zM391 668q0 -124 24 -213t69.5 -141t106 -75.5t140.5 -23.5q165 0 253.5 105.5t88.5 347.5v184q0 242 -88.5 346.5t-253.5 104.5t-252.5 -104.5t-87.5 -346.5v-184z" />
<glyph unicode="R" horiz-adv-x="1386" d="M162 0v1522q225 10 426 10q84 0 153 -5t139.5 -19t125 -36.5t103 -59t80.5 -85.5t50 -117.5t18 -152.5v-15q0 -166 -67 -266t-195 -155l359 -621h-303l-336 563q-41 -2 -133 -2h-142v-561h-278zM440 791q79 -3 158 -3q204 0 291.5 54.5t87.5 197.5v13q0 44 -6.5 78 t-26.5 59t-37.5 42t-59.5 28t-71.5 17t-95.5 9t-108.5 3.5t-131.5 0.5v-499z" />
<glyph unicode="S" horiz-adv-x="1261" d="M104 1151q0 216 133.5 308.5t411.5 92.5q129 0 252 -15.5t193 -33.5v-217q-4 0 -88.5 7.5t-117.5 10t-101.5 6t-124.5 3.5q-142 0 -208.5 -33t-66.5 -121q0 -70 41 -113t154 -88l206 -84q104 -43 171 -84.5t114.5 -97t67.5 -126t20 -167.5q0 -207 -141.5 -319.5 t-398.5 -112.5q-138 0 -276.5 15t-203.5 32v219q250 -24 457 -24q141 0 206.5 43.5t65.5 144.5q0 76 -39.5 123.5t-150.5 93.5l-229 95q-175 71 -261 176t-86 266z" />
<glyph unicode="T" horiz-adv-x="1310" d="M57 1284v238h1196v-238h-454v-1284h-287v1284h-455z" />
<glyph unicode="U" horiz-adv-x="1497" d="M152 623v899h282v-885q0 -234 68 -329t248 -95q179 0 247 95t68 329v885h281v-899q0 -326 -152.5 -491t-443.5 -165q-293 0 -445.5 165t-152.5 491z" />
<glyph unicode="V" horiz-adv-x="1456" d="M59 1522h295l314 -1055q15 -50 34.5 -147.5t26.5 -124.5h4q37 192 62 272l313 1055h289l-461 -1522h-418z" />
<glyph unicode="W" horiz-adv-x="1941" d="M84 1522h291l151 -922q9 -55 23.5 -158t19.5 -137h9q11 45 31 140.5t32 142.5l160 669h346l160 -675q57 -256 61 -277h8q21 168 43 295l154 922h285l-267 -1522h-383l-192 805q-7 31 -20.5 100t-22.5 103h-4q-9 -34 -22.5 -103t-20.5 -100l-191 -805h-387z" />
<glyph unicode="X" horiz-adv-x="1439" d="M55 0l500 776l-494 746h316l364 -525l349 525h282l-493 -758l505 -764h-319l-371 541l-356 -541h-283z" />
<glyph unicode="Y" horiz-adv-x="1363" d="M35 1522h299l239 -441q62 -118 107 -235h12q27 76 111 235l239 441h287l-508 -953v-569h-278v569z" />
<glyph unicode="Z" horiz-adv-x="1312" d="M109 0v260l749 1020h-725v242h1047v-262l-748 -1020h772v-240h-1095z" />
<glyph unicode="[" horiz-adv-x="862" d="M201 -418v1940h553v-226h-285v-1491h285v-223h-553z" />
<glyph unicode="\" horiz-adv-x="974" d="M53 1522h269l598 -1522h-271z" />
<glyph unicode="]" horiz-adv-x="862" d="M106 -195h285v1493h-285v224h553v-1940h-553v223z" />
<glyph unicode="^" horiz-adv-x="1411" d="M170 866l330 660h409l330 -660h-268l-266 539l-265 -539h-270z" />
<glyph unicode="_" horiz-adv-x="1214" d="M4 -98h1204v-160h-1204v160z" />
<glyph unicode="`" horiz-adv-x="964" d="M102 1585h314l268 -303h-258z" />
<glyph unicode="a" horiz-adv-x="1181" d="M94 299v43q0 65 13.5 116t37 87.5t62.5 62.5t81 42t101.5 25t117 12t132.5 3h137v72q0 65 -8 100.5t-35.5 58.5t-71.5 30t-124 7q-163 0 -363 -22v182q50 20 167 42t241 22q111 0 190 -16t133 -46.5t85 -82.5t44 -117.5t13 -157.5v-762h-250v76q-65 -44 -159 -75.5 t-206 -31.5q-164 0 -251 82.5t-87 247.5zM356 301q0 -75 42 -105t120 -30q74 0 149 23t115 47v288h-143q-65 0 -106.5 -3.5t-78.5 -14t-56.5 -30t-30.5 -50t-11 -76.5v-49z" />
<glyph unicode="b" horiz-adv-x="1261" d="M150 2v1589h270v-463q115 56 270 56q239 0 353 -125t114 -387v-160q0 -286 -134.5 -414.5t-410.5 -128.5q-189 0 -462 33zM418 209q180 -8 198 -8q146 0 208.5 67.5t62.5 243.5v162q0 156 -51.5 218t-180.5 62q-149 0 -237 -43v-702z" />
<glyph unicode="c" horiz-adv-x="1028" d="M104 504v145q0 266 119.5 399.5t366.5 133.5q214 0 356 -43v-205q-218 18 -309 18q-67 0 -112.5 -12.5t-81 -45t-52 -93t-16.5 -152.5v-145q0 -91 16.5 -152t52 -94t81 -46t112.5 -13q91 0 309 18v-205q-163 -43 -356 -43q-486 0 -486 535z" />
<glyph unicode="d" horiz-adv-x="1261" d="M104 485v164q0 149 35.5 254t103.5 165t156 87t203 27q112 0 240 -23v432h270v-1591h-254v59q-143 -90 -323 -90q-207 0 -319 128.5t-112 387.5zM375 485q0 -155 54.5 -220.5t180.5 -65.5q116 0 234 51v686q-130 20 -215 20q-66 0 -109.5 -11.5t-78 -44t-50.5 -94 t-16 -157.5v-164z" />
<glyph unicode="e" horiz-adv-x="1245" d="M104 535v71q0 576 521 576q520 0 520 -600v-90h-772v-21q0 -48 3 -79.5t13.5 -66t31 -56t54 -40t84.5 -26.5t121 -8q134 0 416 26v-203q-211 -49 -428 -49q-310 0 -437 129.5t-127 436.5zM375 668h499v18q0 46 -4.5 81t-19.5 74t-41 64.5t-73 42.5t-111 17 q-63 0 -109.5 -17t-72.5 -43t-42 -64.5t-21 -74.5t-5 -80v-18z" />
<glyph unicode="f" horiz-adv-x="880" d="M45 954v199h203v111q0 85 14 146t48 111t99.5 75.5t161.5 25.5q122 0 248 -33v-172q-171 6 -180 6q-42 0 -66 -7.5t-36 -30.5t-14.5 -48.5t-2.5 -76.5v-107h295v-217h-295v-936h-272v936z" />
<glyph unicode="g" horiz-adv-x="1261" d="M106 518v129q0 276 134.5 405.5t431.5 129.5q183 0 442 -29v-1196q0 -79 -13 -139t-46.5 -111.5t-88.5 -85t-141 -52t-202 -18.5q-90 0 -197 10.5t-164 19.5t-90 16v184q306 -19 434 -19q79 0 127 11t72 38t31.5 59t7.5 87v45q-99 -16 -207 -16q-263 0 -397 126t-134 406 zM377 518q0 -172 61 -239.5t213 -67.5q130 0 193 14v719q-69 12 -189 12q-160 0 -219 -72t-59 -239v-127z" />
<glyph unicode="h" d="M150 0v1591h268v-495q160 86 358 86q205 0 292 -114.5t87 -336.5v-731h-272v727q0 131 -40 179t-143 48q-145 0 -282 -63v-891h-268z" />
<glyph unicode="i" horiz-adv-x="587" d="M156 1331v260h278v-260h-278zM158 0v1153h272v-1153h-272z" />
<glyph unicode="j" horiz-adv-x="587" d="M-70 -244q33 -2 117 -2q70 0 90.5 29.5t20.5 120.5v1249h272v-1249q0 -199 -74.5 -277t-257.5 -78q-106 0 -168 15v192zM156 1331v260h278v-260h-278z" />
<glyph unicode="k" horiz-adv-x="1173" d="M150 0v1591h268v-952l409 514h310l-447 -553l459 -600h-324l-407 547v-547h-268z" />
<glyph unicode="l" horiz-adv-x="585" d="M158 0v1591h270v-1591h-270z" />
<glyph unicode="m" horiz-adv-x="1861" d="M150 0v1153h258v-92q154 121 344 121q187 0 262 -125q182 125 358 125q68 0 121.5 -13t89.5 -33.5t62 -55t40 -67t21.5 -80t9.5 -84.5t2 -89v-760h-270v756q0 40 -1 60t-5 47.5t-13 41t-25 27.5t-41 19t-60 5q-112 0 -240 -69q6 -45 6 -131v-756h-270v756q0 48 -1 71.5 t-8 53.5t-20.5 43t-39 22.5t-64.5 9.5q-102 0 -248 -73v-883h-268z" />
<glyph unicode="n" horiz-adv-x="1298" d="M150 0v1153h258v-92q210 121 378 121q69 0 123 -11.5t92.5 -31.5t66.5 -52.5t44.5 -67.5t26 -84t13 -96t3.5 -108v-731h-272v731q0 128 -32.5 175.5t-129.5 47.5q-110 0 -303 -77v-877h-268z" />
<glyph unicode="o" horiz-adv-x="1249" d="M104 506v141q0 268 133 401.5t388 133.5t387.5 -133.5t132.5 -401.5v-141q0 -270 -132.5 -403.5t-387.5 -133.5t-388 133.5t-133 403.5zM373 506q0 -164 59.5 -234.5t192.5 -70.5t192.5 70.5t59.5 234.5v141q0 164 -59 233.5t-193 69.5q-132 0 -192 -70t-60 -233v-141z " />
<glyph unicode="p" horiz-adv-x="1259" d="M150 -422v1575h251v-76q152 105 338 105q203 0 309.5 -128t106.5 -415v-107q0 -126 -24.5 -222.5t-67.5 -160t-107.5 -104t-139.5 -57.5t-169 -17q-124 0 -229 25v-418h-268zM416 219q123 -22 213 -22q66 0 110 13t79.5 48t52 102.5t16.5 171.5v107q0 176 -52 243.5 t-169 67.5q-112 0 -250 -61v-670z" />
<glyph unicode="q" horiz-adv-x="1259" d="M104 516v102q0 132 23 229t65.5 161.5t112 103t154.5 54.5t200 16q202 0 453 -33v-1571h-268v451q-148 -60 -299 -60q-229 0 -335 128t-106 419zM375 516q0 -181 44 -248t165 -67q125 0 258 49v692q-90 8 -191 8q-62 0 -101.5 -6t-76 -25.5t-56 -56t-31 -97t-11.5 -149.5 v-100z" />
<glyph unicode="r" horiz-adv-x="831" d="M150 0v1153h256v-94q140 123 393 123v-248q-104 0 -209.5 -19.5t-171.5 -50.5v-864h-268z" />
<glyph unicode="s" horiz-adv-x="1048" d="M94 868q0 169 112 241.5t349 72.5q91 0 201.5 -15t158.5 -30v-189q-226 21 -356 21q-111 0 -155 -18.5t-44 -76.5q0 -53 34.5 -79t148.5 -70l92 -37q191 -77 263 -153.5t73 -215.5q0 -167 -115.5 -257.5t-351.5 -90.5q-109 0 -228 15.5t-165 29.5v193q13 -1 85.5 -8.5 t151.5 -13t144 -5.5q122 0 167.5 28.5t45.5 92.5q0 58 -36.5 86.5t-168.5 81.5l-88 35q-167 66 -242.5 149t-75.5 213z" />
<glyph unicode="t" horiz-adv-x="874" d="M47 954v199h215v293h270v-293h281v-217h-281v-631q0 -82 17.5 -104.5t89.5 -22.5q108 0 174 8v-184q-128 -33 -233 -33q-171 0 -244.5 75.5t-73.5 256.5v635z" />
<glyph unicode="u" d="M145 420v733h269v-733q0 -127 33.5 -175t132.5 -48t301 77v879h270v-1153h-260v92q-228 -123 -399 -123q-87 0 -151 25t-101 64.5t-59 101t-29 121.5t-7 139z" />
<glyph unicode="v" horiz-adv-x="1181" d="M41 1153h283l188 -657q17 -59 43.5 -165t38.5 -149q7 27 33.5 138.5t44.5 175.5l186 657h283l-359 -1153h-383z" />
<glyph unicode="w" horiz-adv-x="1792" d="M51 1153h275l129 -623q34 -172 39 -284h10q7 24 33 126.5t43 155.5l151 482h332l151 -482q17 -53 43 -155.5t33 -126.5h10q5 98 41 284l127 623h273l-248 -1153h-354l-178 565q-45 135 -60 232h-8q-15 -97 -59 -232l-181 -565h-350z" />
<glyph unicode="x" horiz-adv-x="1202" d="M41 0l395 602l-375 551h312l254 -373l225 373h297l-377 -586l389 -567h-315l-266 389l-244 -389h-295z" />
<glyph unicode="y" horiz-adv-x="1198" d="M41 1153h293l201 -612q18 -56 43.5 -158t39.5 -150q47 213 76 308l183 612h280l-401 -1196q-30 -88 -56.5 -147.5t-62 -112t-78.5 -82.5t-101 -47t-134 -17q-152 0 -275 25v197q141 -9 217 -9q70 0 104.5 36t73.5 137l27 71z" />
<glyph unicode="z" horiz-adv-x="1060" d="M82 0v242l588 692h-566v219h865v-238l-592 -700h594v-215h-889z" />
<glyph unicode="{" horiz-adv-x="894" d="M102 465v170q51 32 76 57.5t38 66t13 105.5v312q0 100 17.5 162t65.5 105.5t129.5 61t211.5 17.5h129v-224h-127q-37 0 -60.5 -1.5t-42 -7t-28 -13t-15.5 -23t-7.5 -32.5t-1.5 -45v-312q0 -122 -35 -190.5t-119 -122.5q84 -55 119 -124t35 -191v-310q0 -44 4 -66 t21.5 -37t45.5 -18.5t84 -3.5h129v-223h-131q-130 0 -211.5 18t-129 62t-65.5 106.5t-18 161.5v310q0 95 -26 138.5t-101 90.5z" />
<glyph unicode="|" horiz-adv-x="667" d="M199 -422v1944h268v-1944h-268z" />
<glyph unicode="}" horiz-adv-x="894" d="M111 -199h129q56 0 84.5 3.5t46.5 18.5t22 37t4 66v310q0 122 35 191t119 124q-85 53 -119.5 122t-34.5 191v312q0 56 -10.5 79.5t-42 33t-104.5 9.5h-127v224h129q130 0 211.5 -17.5t129.5 -61t65.5 -105.5t17.5 -162v-312q0 -65 13 -105.5t38.5 -66t77.5 -57.5v-170 q-52 -32 -77 -57t-38.5 -65.5t-13.5 -106.5v-310q0 -99 -18 -161.5t-65.5 -106.5t-129 -62t-211.5 -18h-131v223z" />
<glyph unicode="~" horiz-adv-x="1411" d="M195 688v76q0 163 65 242t199 79q59 0 107.5 -19t113.5 -62l123 -82q76 -50 135 -50q51 0 66.5 28t15.5 93v76h194v-76q0 -163 -57 -242t-192 -79q-72 0 -128 16.5t-116 56.5l-129 86q-5 4 -21 14.5t-21 13.5t-17.5 10t-19.5 9t-18 4.5t-22 2.5q-48 0 -65 -28.5 t-17 -92.5v-76h-196z" />
<glyph unicode="&#xa1;" horiz-adv-x="616" d="M160 -436l26 1159h244l27 -1159h-297zM168 842v313h278v-313h-278z" />
<glyph unicode="&#xa2;" horiz-adv-x="1062" d="M111 504v145q0 454 362 520v226h232v-217q162 -13 247 -39v-203q-169 16 -309 16q-67 0 -112.5 -12.5t-81 -45t-52 -93t-16.5 -152.5v-145q0 -91 16.5 -152t52 -94t81 -46t112.5 -13q99 0 309 16v-203q-112 -30 -247 -37v-223h-232v232q-362 63 -362 520z" />
<glyph unicode="&#xa3;" horiz-adv-x="1312" d="M119 680v213h157v129q0 140 24 235.5t80.5 163.5t153 99.5t240.5 31.5q237 0 418 -43v-215q-220 21 -381 21q-86 0 -135.5 -13t-76.5 -50.5t-34.5 -87.5t-7.5 -142v-129h469v-213h-469v-248q0 -112 -63 -203h698v-229h-1010v193q94 94 94 239v248h-157z" />
<glyph unicode="&#xa4;" horiz-adv-x="1347" d="M137 379l162 160q-68 108 -68 231q0 128 68 229l-162 160l142 141l161 -157q104 65 236 65q129 0 233 -65l158 153l143 -141l-157 -156q67 -112 67 -231q0 -124 -67 -231l157 -156l-143 -143l-160 155q-111 -65 -231 -65q-129 0 -236 65l-161 -155zM414 770 q0 -107 78 -182.5t184 -75.5q104 0 182 76t78 182t-77.5 182t-182.5 76q-107 0 -184.5 -76t-77.5 -182z" />
<glyph unicode="&#xa5;" horiz-adv-x="1431" d="M63 1522h302l241 -441q55 -99 107 -235h10q32 89 113 235l237 441h291l-283 -523h246v-182h-342l-106 -188h448v-183h-473v-446h-281v446h-475v183h449l-105 188h-344v182h248z" />
<glyph unicode="&#xa6;" horiz-adv-x="667" d="M199 383h268v-805h-268v805zM199 721v801h268v-801h-268z" />
<glyph unicode="&#xa7;" horiz-adv-x="1368" d="M156 725q0 128 57 225q-55 82 -55 219q0 192 130.5 285.5t409.5 93.5q245 0 457 -47v-211q-14 1 -108 8.5t-177 12t-157 4.5q-153 0 -213 -37t-60 -121q0 -73 38 -118.5t153 -94.5l237 -100q192 -82 267 -178.5t75 -239.5q0 -123 -61 -223q61 -94 61 -219 q0 -207 -134.5 -318.5t-407.5 -111.5q-122 0 -257.5 14t-217.5 31v215q313 -23 452 -23q153 0 213 47t60 146q0 41 -6.5 67t-29 54.5t-68 55.5t-120.5 60l-245 107q-154 67 -223.5 159.5t-69.5 237.5zM381 745.5q0 -18.5 3 -47.5t7 -40.5t13.5 -30.5t21.5 -28t33 -23.5 t45.5 -25.5t60.5 -26l244 -102q69 -29 158 -88v51q0 54 -5 83.5t-25 60.5t-58.5 54t-106.5 52l-240 100q-60 25 -91 45t-60 51v-24v-61.5z" />
<glyph unicode="&#xa8;" horiz-adv-x="989" d="M133 1321v254h229v-254h-229zM629 1321v254h227v-254h-227z" />
<glyph unicode="&#xa9;" horiz-adv-x="1744" d="M129 768q0 181 55 327t154 242t234 147.5t296 51.5t296 -51.5t233.5 -147.5t153.5 -242t55 -327q0 -182 -55 -328t-153.5 -242t-233.5 -147t-296 -51t-296 51t-234 147t-154 242t-55 328zM299 768q0 -286 156 -450t413 -164q256 0 414 164t158 450q0 284 -158 448 t-414 164q-257 0 -413 -163.5t-156 -448.5zM502 711v114q0 188 96 285.5t287 97.5q156 0 233 -24v-156q-132 12 -217 12q-112 0 -153 -46.5t-41 -168.5v-114q0 -121 41 -168t153 -47q85 0 217 12v-156q-77 -24 -233 -24q-190 0 -286.5 99t-96.5 284z" />
<glyph unicode="&#xaa;" horiz-adv-x="911" d="M106 1051v24q0 42 10 74.5t26.5 55t44.5 38.5t55.5 25t68.5 14t76 6.5t84 1.5h84v37q0 72 -27.5 93.5t-124.5 21.5q-103 0 -241 -15v127q39 15 117.5 29t164.5 14q177 0 245.5 -61.5t68.5 -208.5v-465h-187v49q-106 -67 -241 -67q-103 0 -163.5 53t-60.5 154zM299 1057 q0 -43 25 -56.5t75 -13.5q44 0 91 13t71 26v152h-88q-100 0 -137 -18t-37 -79v-24z" />
<glyph unicode="&#xab;" horiz-adv-x="1484" d="M102 596l326 440h293l-315 -440l315 -444h-293zM758 596l325 440h293l-315 -440l315 -444h-293z" />
<glyph unicode="&#xac;" horiz-adv-x="1411" d="M225 938v227h959v-743h-215v516h-744z" />
<glyph unicode="&#xad;" horiz-adv-x="790" d="M135 496v213h520v-213h-520z" />
<glyph unicode="&#xae;" horiz-adv-x="1382" d="M129 973q0 270 152 431t407 161q254 0 405.5 -161t151.5 -431t-151.5 -431t-405.5 -161q-255 0 -407 161t-152 431zM268 973q0 -218 111.5 -340.5t308.5 -122.5q195 0 306.5 122.5t111.5 340.5q0 215 -111.5 338t-306.5 123q-196 0 -308 -123t-112 -338zM457 672v633 q92 6 190 6q54 -1 93.5 -5.5t78 -18t62.5 -36t38.5 -59.5t14.5 -88q0 -138 -121 -178l168 -254h-168l-147 227h-66v-227h-143zM600 1008q45 0 69 1t51 6t39.5 15.5t20.5 28.5t8 45q0 22 -4 37.5t-15.5 25t-22.5 15.5t-34.5 8.5t-42 3t-53.5 0.5h-16v-186z" />
<glyph unicode="&#xaf;" horiz-adv-x="1251" d="M4 1675v160h1241v-160h-1241z" />
<glyph unicode="&#xb0;" horiz-adv-x="907" d="M102 1208q0 143 103 243.5t250 100.5q146 0 249 -100.5t103 -243.5q0 -142 -103 -242t-249 -100q-148 0 -250.5 99.5t-102.5 242.5zM268 1208q0 -76 54 -127t131 -51t130.5 51t53.5 127q0 77 -53.5 127.5t-130.5 50.5q-78 0 -131.5 -50.5t-53.5 -127.5z" />
<glyph unicode="&#xb1;" horiz-adv-x="1411" d="M180 768v225h422v402h209v-402h420v-225h-420v-403h-209v403h-422zM184 0v195h1039v-195h-1039z" />
<glyph unicode="&#xb2;" horiz-adv-x="921" d="M113 618v113q0 111 30 184.5t90 124t173 103.5q120 58 152 88t32 78t-39 68t-133 20q-46 0 -106.5 -3t-115 -7t-69.5 -5v136q42 13 139 23.5t183 10.5q184 0 271 -56.5t87 -180.5q0 -96 -58.5 -161t-205.5 -132q-141 -66 -179 -105.5t-38 -121.5v-11h465v-166h-678z" />
<glyph unicode="&#xb3;" horiz-adv-x="913" d="M119 635v137q165 -14 287 -14q97 0 137.5 25.5t40.5 99.5v18q0 58 -28.5 84.5t-119.5 26.5h-268v149h270q88 0 117 28.5t29 84.5v12q0 62 -37 84.5t-141 22.5q-47 0 -99 -2.5t-114.5 -7t-73.5 -5.5v138q33 12 127 24t180 12q188 0 280.5 -56.5t92.5 -192.5v-15 q0 -64 -28 -118t-87 -83q115 -52 115 -194v-19q0 -147 -91 -211.5t-282 -64.5q-85 0 -180.5 12.5t-126.5 24.5z" />
<glyph unicode="&#xb4;" horiz-adv-x="964" d="M260 1282l270 303h314l-324 -303h-260z" />
<glyph unicode="&#xb5;" horiz-adv-x="1388" d="M186 -420v1573h269v-733q0 -127 33.5 -175t132.5 -48t301 77v879h270v-1153h-260v92q-221 -108 -346 -108q-82 0 -129 12v-416h-271z" />
<glyph unicode="&#xb6;" horiz-adv-x="1523" d="M125 1006v20q0 120 33 208.5t88.5 143t141.5 87.5t179 45t215 12h594v-1925h-194v1732h-123v-1732h-195v913h-98q-116 0 -207.5 13t-175 47t-138.5 89t-87.5 142.5t-32.5 204.5z" />
<glyph unicode="&#xb7;" horiz-adv-x="595" d="M168 596v317h262v-317h-262z" />
<glyph unicode="&#xb8;" horiz-adv-x="931" d="M133 -422l225 289h306l-273 -289h-258z" />
<glyph unicode="&#xb9;" horiz-adv-x="858" d="M139 1274v174l252 90h156v-758l188 -8v-154h-594v154l189 8v553z" />
<glyph unicode="&#xba;" horiz-adv-x="921" d="M106 1188v65q0 344 355 344q354 0 354 -344v-65q0 -346 -354 -346q-172 0 -263.5 85.5t-91.5 260.5zM307 1188q0 -99 35.5 -139.5t118.5 -40.5t118 40.5t35 139.5v65q0 98 -35.5 138.5t-117.5 40.5q-81 0 -117.5 -41t-36.5 -138v-65z" />
<glyph unicode="&#xbb;" horiz-adv-x="1484" d="M106 152l316 444l-316 440h293l326 -440l-326 -444h-293zM764 152l313 444l-313 440h291l325 -440l-325 -444h-291z" />
<glyph unicode="&#xbc;" horiz-adv-x="1990" d="M139 1274v174l252 90h156v-758l188 -8v-154h-594v154l189 8v553zM434 0l991 1524h244l-993 -1524h-242zM1085 209v158l478 548h186v-550h135v-156h-135v-209h-215v209h-449zM1266 365h278v313z" />
<glyph unicode="&#xbd;" horiz-adv-x="2179" d="M139 1274v174l252 90h156v-758l188 -8v-154h-594v154l189 8v553zM434 0l991 1524h244l-993 -1524h-242zM1389 0v113q0 112 29.5 184.5t89.5 123t173 103.5q121 58 153 88t32 78t-39 68t-133 20q-46 0 -106 -3t-115.5 -6.5t-69.5 -4.5v135q42 13 139 24t182 11 q184 0 271.5 -57t87.5 -181q0 -96 -58.5 -161t-205.5 -132q-141 -66 -179 -105.5t-38 -121.5v-10h464v-166h-677z" />
<glyph unicode="&#xbe;" horiz-adv-x="2099" d="M119 635v137q165 -14 287 -14q97 0 137.5 25.5t40.5 99.5v18q0 58 -28.5 84.5t-119.5 26.5h-268v149h270q88 0 117 28.5t29 84.5v12q0 62 -37 84.5t-141 22.5q-47 0 -99 -2.5t-114.5 -7t-73.5 -5.5v138q33 12 127 24t180 12q188 0 280.5 -56.5t92.5 -192.5v-15 q0 -64 -28 -118t-87 -83q115 -52 115 -194v-19q0 -147 -91 -211.5t-282 -64.5q-85 0 -180.5 12.5t-126.5 24.5zM475 0l995 1524h244l-995 -1524h-244zM1188 209v158l477 548h186v-550h136v-156h-136v-209h-215v209h-448zM1368 365h279v313z" />
<glyph unicode="&#xbf;" horiz-adv-x="1038" d="M125 -104q0 103 46 188t167 205q93 92 137 153t56 104.5t12 112.5v66h243v-66q0 -98 -10 -156.5t-49.5 -128t-118.5 -149.5q-106 -107 -142 -167.5t-36 -125.5v-14q0 -81 53 -110t172 -29q81 0 320 18v-198q-181 -58 -393 -58q-227 0 -342 81t-115 257v17zM528 844v315 h271v-315h-271z" />
<glyph unicode="&#xc0;" horiz-adv-x="1443" d="M47 0l461 1522h428l461 -1522h-301l-131 426h-490l-135 -426h-293zM350 1921h314l270 -305h-260zM528 662h381l-127 419q-28 91 -53 240h-18q-34 -173 -54 -240z" />
<glyph unicode="&#xc1;" horiz-adv-x="1443" d="M47 0l461 1522h428l461 -1522h-301l-131 426h-490l-135 -426h-293zM528 662h381l-127 419q-28 91 -53 240h-18q-34 -173 -54 -240zM545 1616l270 305h313l-323 -305h-260z" />
<glyph unicode="&#xc2;" horiz-adv-x="1443" d="M47 0l461 1522h428l461 -1522h-301l-131 426h-490l-135 -426h-293zM274 1616l277 305h336l276 -305h-248l-196 186l-195 -186h-250zM528 662h381l-127 419q-28 91 -53 240h-18q-34 -173 -54 -240z" />
<glyph unicode="&#xc3;" horiz-adv-x="1443" d="M47 0l461 1522h428l461 -1522h-301l-131 426h-490l-135 -426h-293zM285 1618v57q0 273 227 273q54 0 98 -15t103 -51l92 -59q73 -49 119 -49q39 0 53 24t14 80v57h166v-57q0 -272 -221 -272q-100 0 -213 71l-90 58q-64 47 -113 47q-38 0 -52.5 -25.5t-14.5 -81.5v-57 h-168zM528 662h381l-127 419q-28 91 -53 240h-18q-34 -173 -54 -240z" />
<glyph unicode="&#xc4;" horiz-adv-x="1443" d="M47 0l461 1522h428l461 -1522h-301l-131 426h-490l-135 -426h-293zM358 1645v253h228v-253h-228zM528 662h381l-127 419q-28 91 -53 240h-18q-34 -173 -54 -240zM854 1645v253h225v-253h-225z" />
<glyph unicode="&#xc5;" horiz-adv-x="1443" d="M47 0l461 1522h428l461 -1522h-301l-131 426h-490l-135 -426h-293zM457 1821q0 117 74.5 179t193.5 62q117 0 189.5 -62t72.5 -179q0 -116 -72.5 -177t-189.5 -61q-119 0 -193.5 61t-74.5 177zM528 662h381l-127 419q-28 91 -53 240h-18q-34 -173 -54 -240zM610 1823 q0 -105 115 -105q51 0 82 25.5t31 79.5q0 102 -113 102q-115 0 -115 -102z" />
<glyph unicode="&#xc6;" horiz-adv-x="2041" d="M78 0l450 1522h1409v-238h-682v-387h641v-229h-641v-432h682v-236h-966v426h-469l-133 -426h-291zM555 659h416v656h-228q-10 -37 -29.5 -112.5t-29.5 -112.5z" />
<glyph unicode="&#xc7;" horiz-adv-x="1202" d="M106 659v203q0 160 30.5 280.5t85 198t137.5 125.5t178.5 67t218.5 19q91 0 206.5 -13.5t176.5 -27.5v-227q-238 19 -365 19q-100 0 -168 -20t-117.5 -69t-72.5 -135.5t-23 -216.5v-203q0 -130 23 -216.5t72.5 -136t117.5 -69.5t168 -20q128 0 365 19v-230 q-59 -14 -174.5 -26.5t-208.5 -12.5q-123 0 -218.5 19.5t-178.5 67.5t-137.5 125.5t-85 198.5t-30.5 281zM338 -422l227 289h305l-274 -289h-258z" />
<glyph unicode="&#xc8;" horiz-adv-x="1236" d="M162 0v1522h968v-238h-681v-387h638v-229h-638v-432h681v-236h-968zM240 1921h313l270 -305h-260z" />
<glyph unicode="&#xc9;" horiz-adv-x="1236" d="M162 0v1522h968v-238h-681v-387h638v-229h-638v-432h681v-236h-968zM494 1616l268 305h313l-323 -305h-258z" />
<glyph unicode="&#xca;" horiz-adv-x="1236" d="M162 0v1522h968v-238h-681v-387h638v-229h-638v-432h681v-236h-968zM205 1616l276 305h334l277 -305h-248l-197 186l-194 -186h-248z" />
<glyph unicode="&#xcb;" horiz-adv-x="1236" d="M162 0v1522h968v-238h-681v-387h638v-229h-638v-432h681v-236h-968zM289 1645v253h227v-253h-227zM782 1645v253h228v-253h-228z" />
<glyph unicode="&#xcc;" horiz-adv-x="610" d="M-51 1921h313l268 -305h-258zM162 0v1522h287v-1522h-287z" />
<glyph unicode="&#xcd;" horiz-adv-x="610" d="M133 1614l268 305h314l-324 -305h-258zM162 0v1522h287v-1522h-287z" />
<glyph unicode="&#xce;" horiz-adv-x="610" d="M-137 1616l276 305h336l275 -305h-248l-197 186l-194 -186h-248zM162 0v1522h287v-1522h-287z" />
<glyph unicode="&#xcf;" horiz-adv-x="610" d="M-57 1645v253h227v-253h-227zM162 0v1522h287v-1522h-287zM438 1645v253h226v-253h-226z" />
<glyph unicode="&#xd0;" horiz-adv-x="1445" d="M55 672v225h107v625q237 12 475 12q365 0 533.5 -167.5t168.5 -506.5v-192q0 -345 -165 -512.5t-537 -167.5q-235 0 -475 12v672h-107zM442 229h189q225 0 324.5 97.5t99.5 341.5v192q0 124 -24.5 207t-78.5 132.5t-130.5 70t-190.5 20.5h-189v-393h267v-225h-267v-443z " />
<glyph unicode="&#xd1;" horiz-adv-x="1517" d="M162 0v1522h332l485 -885q63 -110 117 -231h4q-8 120 -8 288v828h264v-1522h-334l-487 903q-81 154 -115 227h-4q8 -172 8 -272v-858h-262zM322 1614v57q0 138 58.5 206.5t170.5 68.5q53 0 97 -15.5t102 -52.5l92 -59q28 -18 43 -26.5t36 -16t40 -7.5q39 0 53 25t14 82 v57h166v-57q0 -272 -221 -272q-104 0 -211 69l-90 60q-68 47 -115 47q-38 0 -53 -26t-15 -83v-57h-167z" />
<glyph unicode="&#xd2;" horiz-adv-x="1464" d="M106 672v178q0 358 163 530t462 172t463 -172t164 -530v-178q0 -360 -163.5 -532.5t-463.5 -172.5t-462.5 172.5t-162.5 532.5zM350 1921h314l268 -305h-258zM391 672q0 -245 88 -351t252 -106q165 0 253.5 106t88.5 351v176q0 244 -88 349.5t-254 105.5 q-165 0 -252.5 -105.5t-87.5 -349.5v-176z" />
<glyph unicode="&#xd3;" horiz-adv-x="1464" d="M106 672v178q0 358 163 530t462 172t463 -172t164 -530v-178q0 -360 -163.5 -532.5t-463.5 -172.5t-462.5 172.5t-162.5 532.5zM391 672q0 -245 88 -351t252 -106q165 0 253.5 106t88.5 351v176q0 244 -88 349.5t-254 105.5q-165 0 -252.5 -105.5t-87.5 -349.5v-176z M535 1616l268 305h315l-325 -305h-258z" />
<glyph unicode="&#xd4;" horiz-adv-x="1464" d="M106 672v178q0 358 163 530t462 172t463 -172t164 -530v-178q0 -360 -163.5 -532.5t-463.5 -172.5t-462.5 172.5t-162.5 532.5zM287 1614l276 305h336l277 -305h-250l-195 186l-196 -186h-248zM391 672q0 -245 88 -351t252 -106q165 0 253.5 106t88.5 351v176 q0 244 -88 349.5t-254 105.5q-165 0 -252.5 -105.5t-87.5 -349.5v-176z" />
<glyph unicode="&#xd5;" horiz-adv-x="1464" d="M106 672v178q0 358 163 530t462 172t463 -172t164 -530v-178q0 -360 -163.5 -532.5t-463.5 -172.5t-462.5 172.5t-162.5 532.5zM295 1614v57q0 138 58.5 206.5t168.5 68.5q54 0 98.5 -15.5t102.5 -52.5l92 -59q74 -50 119 -50q39 0 53 25t14 82v57h166v-57 q0 -272 -221 -272q-103 0 -213 69l-90 60q-68 47 -113 47q-38 0 -52.5 -26t-14.5 -83v-57h-168zM391 672q0 -245 88 -351t252 -106q165 0 253.5 106t88.5 351v176q0 244 -88 349.5t-254 105.5q-165 0 -252.5 -105.5t-87.5 -349.5v-176z" />
<glyph unicode="&#xd6;" horiz-adv-x="1464" d="M106 672v178q0 358 163 530t462 172t463 -172t164 -530v-178q0 -360 -163.5 -532.5t-463.5 -172.5t-462.5 172.5t-162.5 532.5zM371 1647v254h227v-254h-227zM391 672q0 -245 88 -351t252 -106q165 0 253.5 106t88.5 351v176q0 244 -88 349.5t-254 105.5 q-165 0 -252.5 -105.5t-87.5 -349.5v-176zM866 1647v254h226v-254h-226z" />
<glyph unicode="&#xd7;" horiz-adv-x="1411" d="M254 492l309 301l-309 299l143 151l310 -299l305 299l145 -153l-307 -299l305 -297l-145 -152l-303 295l-308 -299z" />
<glyph unicode="&#xd8;" horiz-adv-x="1464" d="M29 0l172 233q-95 170 -95 439v178q0 358 163 530t462 172q228 0 373 -96l49 66h268l-166 -226q103 -165 103 -446v-178q0 -360 -163.5 -532.5t-463.5 -172.5q-232 0 -381 101l-49 -68h-272zM391 672q0 -94 12 -164l541 731q-81 64 -213 64q-165 0 -252.5 -105.5 t-87.5 -349.5v-176zM512 287q80 -72 219 -72q165 0 253.5 106t88.5 351v176q0 96 -16 178z" />
<glyph unicode="&#xd9;" horiz-adv-x="1497" d="M152 623v899h282v-885q0 -234 68 -329t248 -95q179 0 247 95t68 329v885h281v-899q0 -326 -152.5 -491t-443.5 -165q-293 0 -445.5 165t-152.5 491zM336 1921h313l271 -305h-261z" />
<glyph unicode="&#xda;" horiz-adv-x="1497" d="M152 623v899h282v-885q0 -234 68 -329t248 -95q179 0 247 95t68 329v885h281v-899q0 -326 -152.5 -491t-443.5 -165q-293 0 -445.5 165t-152.5 491zM588 1618l268 305h313l-323 -305h-258z" />
<glyph unicode="&#xdb;" horiz-adv-x="1497" d="M152 623v899h282v-885q0 -234 68 -329t248 -95q179 0 247 95t68 329v885h281v-899q0 -326 -152.5 -491t-443.5 -165q-293 0 -445.5 165t-152.5 491zM307 1616l277 305h334l276 -305h-248l-196 186l-195 -186h-248z" />
<glyph unicode="&#xdc;" horiz-adv-x="1497" d="M152 623v899h282v-885q0 -234 68 -329t248 -95q179 0 247 95t68 329v885h281v-899q0 -326 -152.5 -491t-443.5 -165q-293 0 -445.5 165t-152.5 491zM385 1645v253h229v-253h-229zM881 1645v253h227v-253h-227z" />
<glyph unicode="&#xdd;" horiz-adv-x="1363" d="M35 1522h299l239 -441q62 -118 107 -235h12q9 27 24.5 61t27 57.5t32 63t27.5 53.5l239 441h287l-508 -953v-569h-278v569zM526 1616l271 305h313l-324 -305h-260z" />
<glyph unicode="&#xde;" horiz-adv-x="1343" d="M162 0v1536h278v-244q68 2 181 2q82 0 150 -5t137 -19t122 -36.5t100.5 -59.5t78.5 -86.5t49 -118.5t18 -154v-24q0 -85 -18 -154.5t-49 -119t-78 -87t-100.5 -61t-122 -37.5t-135.5 -19.5t-148 -5.5q-107 0 -185 2v-309h-278zM440 553q43 -2 181 -2q101 0 166 9.5 t114.5 35.5t71.5 73.5t22 121.5v26q0 46 -10 81.5t-26 60.5t-45.5 42t-60.5 27.5t-80.5 16t-96 7t-115.5 1.5h-121v-500z" />
<glyph unicode="&#xdf;" horiz-adv-x="1361" d="M154 0v1032q0 141 28.5 245.5t92 181t170 115t257.5 38.5q110 0 197.5 -23t145.5 -63t97 -95.5t55.5 -117.5t16.5 -133v-23q0 -109 -47 -193t-141 -130q108 -48 165.5 -142t57.5 -209v-41q0 -218 -125 -340t-383 -122q-61 0 -155 12v213q51 -2 102 -2q156 0 225.5 60 t69.5 192v39q0 114 -72.5 172.5t-230.5 58.5h-94v195h94q150 0 213 58t63 169v18q0 104 -57.5 159.5t-200.5 55.5q-152 0 -213 -76t-61 -272v-1032h-270z" />
<glyph unicode="&#xe0;" horiz-adv-x="1181" d="M94 299v43q0 65 13.5 116t37 87.5t62.5 62.5t81 42t101.5 25t117 12t132.5 3h137v72q0 65 -8 100.5t-35.5 58.5t-71.5 30t-124 7q-163 0 -363 -22v182q50 20 167 42t241 22q111 0 190 -16t133 -46.5t85 -82.5t44 -117.5t13 -157.5v-762h-250v76q-65 -44 -159 -75.5 t-206 -31.5q-164 0 -251 82.5t-87 247.5zM211 1585h313l271 -303h-260zM356 301q0 -75 42 -105t120 -30q74 0 149 23t115 47v288h-143q-65 0 -106.5 -3.5t-78.5 -14t-56.5 -30t-30.5 -50t-11 -76.5v-49z" />
<glyph unicode="&#xe1;" horiz-adv-x="1181" d="M94 299v43q0 65 13.5 116t37 87.5t62.5 62.5t81 42t101.5 25t117 12t132.5 3h137v72q0 65 -8 100.5t-35.5 58.5t-71.5 30t-124 7q-163 0 -363 -22v182q50 20 167 42t241 22q111 0 190 -16t133 -46.5t85 -82.5t44 -117.5t13 -157.5v-762h-250v76q-65 -44 -159 -75.5 t-206 -31.5q-164 0 -251 82.5t-87 247.5zM356 301q0 -75 42 -105t120 -30q74 0 149 23t115 47v288h-143q-65 0 -106.5 -3.5t-78.5 -14t-56.5 -30t-30.5 -50t-11 -76.5v-49zM432 1282l268 303h314l-324 -303h-258z" />
<glyph unicode="&#xe2;" horiz-adv-x="1181" d="M94 299v43q0 65 13.5 116t37 87.5t62.5 62.5t81 42t101.5 25t117 12t132.5 3h137v72q0 65 -8 100.5t-35.5 58.5t-71.5 30t-124 7q-163 0 -363 -22v182q50 20 167 42t241 22q111 0 190 -16t133 -46.5t85 -82.5t44 -117.5t13 -157.5v-762h-250v76q-65 -44 -159 -75.5 t-206 -31.5q-164 0 -251 82.5t-87 247.5zM152 1282l276 303h336l274 -303h-247l-197 184l-195 -184h-247zM356 301q0 -75 42 -105t120 -30q74 0 149 23t115 47v288h-143q-65 0 -106.5 -3.5t-78.5 -14t-56.5 -30t-30.5 -50t-11 -76.5v-49z" />
<glyph unicode="&#xe3;" horiz-adv-x="1181" d="M94 299v43q0 65 13.5 116t37 87.5t62.5 62.5t81 42t101.5 25t117 12t132.5 3h137v72q0 65 -8 100.5t-35.5 58.5t-71.5 30t-124 7q-163 0 -363 -22v182q50 20 167 42t241 22q111 0 190 -16t133 -46.5t85 -82.5t44 -117.5t13 -157.5v-762h-250v76q-65 -44 -159 -75.5 t-206 -31.5q-164 0 -251 82.5t-87 247.5zM160 1284v57q0 273 227 273q54 0 98 -15t103 -51l92 -59q73 -49 119 -49q39 0 53 24.5t14 81.5v56h164v-56q0 -274 -219 -274q-100 0 -213 71l-90 58q-67 49 -113 49q-39 0 -53 -26t-14 -83v-57h-168zM356 301q0 -75 42 -105 t120 -30q74 0 149 23t115 47v288h-143q-65 0 -106.5 -3.5t-78.5 -14t-56.5 -30t-30.5 -50t-11 -76.5v-49z" />
<glyph unicode="&#xe4;" horiz-adv-x="1181" d="M94 299v43q0 65 13.5 116t37 87.5t62.5 62.5t81 42t101.5 25t117 12t132.5 3h137v72q0 65 -8 100.5t-35.5 58.5t-71.5 30t-124 7q-163 0 -363 -22v182q50 20 167 42t241 22q111 0 190 -16t133 -46.5t85 -82.5t44 -117.5t13 -157.5v-762h-250v76q-65 -44 -159 -75.5 t-206 -31.5q-164 0 -251 82.5t-87 247.5zM236 1319v254h227v-254h-227zM356 301q0 -75 42 -105t120 -30q74 0 149 23t115 47v288h-143q-65 0 -106.5 -3.5t-78.5 -14t-56.5 -30t-30.5 -50t-11 -76.5v-49zM731 1319v254h225v-254h-225z" />
<glyph unicode="&#xe5;" horiz-adv-x="1181" d="M94 299v43q0 65 13.5 116t37 87.5t62.5 62.5t81 42t101.5 25t117 12t132.5 3h137v72q0 65 -8 100.5t-35.5 58.5t-71.5 30t-124 7q-163 0 -363 -22v182q50 20 167 42t241 22q111 0 190 -16t133 -46.5t85 -82.5t44 -117.5t13 -157.5v-762h-250v76q-65 -44 -159 -75.5 t-206 -31.5q-164 0 -251 82.5t-87 247.5zM346 1487q0 117 74 178t194 61q118 0 190.5 -61t72.5 -178q0 -116 -73 -178t-190 -62q-119 0 -193.5 62t-74.5 178zM356 301q0 -75 42 -105t120 -30q74 0 149 23t115 47v288h-143q-65 0 -106.5 -3.5t-78.5 -14t-56.5 -30t-30.5 -50 t-11 -76.5v-49zM500 1487q0 -103 114 -103q51 0 82 25t31 78q0 54 -31 79t-82 25q-114 0 -114 -104z" />
<glyph unicode="&#xe6;" horiz-adv-x="1916" d="M94 299v43q0 65 13.5 116t37 87.5t62.5 62.5t81 42t101.5 25t117 12t132.5 3h137v72q0 63 -8 98t-34.5 59t-71.5 31.5t-125 7.5q-141 0 -363 -20v180q50 20 167 42t241 22q153 0 235 -26t131 -79q131 103 350 103q112 0 200.5 -29t148 -80t98 -124t55.5 -157.5t17 -183.5 v-114h-770v-21q0 -48 3 -79.5t12.5 -67.5t30 -58.5t53.5 -42t84.5 -28.5t121.5 -9q201 0 417 29v-197q-180 -47 -438 -47q-308 0 -434 138q-108 -74 -216.5 -106t-248.5 -32q-164 0 -251 81.5t-87 246.5zM356 301q0 -75 41.5 -105t118.5 -30q75 0 149 22.5t117 47.5v288 h-143q-65 0 -106.5 -3.5t-78.5 -14t-56.5 -30t-30.5 -50t-11 -76.5v-49zM1049 668h499v18q0 45 -4.5 80.5t-20 74.5t-42 64.5t-74 42.5t-111.5 17q-63 0 -109 -17t-72 -43t-41.5 -65t-20 -74.5t-4.5 -79.5v-18z" />
<glyph unicode="&#xe7;" horiz-adv-x="1028" d="M104 504v145q0 266 119.5 399.5t366.5 133.5q214 0 356 -43v-205q-218 18 -309 18q-67 0 -112.5 -12.5t-81 -45t-52 -93t-16.5 -152.5v-145q0 -91 16.5 -152t52 -94t81 -46t112.5 -13q91 0 309 18v-205q-163 -43 -356 -43q-486 0 -486 535zM221 -422l225 289h306 l-273 -289h-258z" />
<glyph unicode="&#xe8;" horiz-adv-x="1245" d="M104 535v71q0 576 521 576q520 0 520 -600v-90h-772v-21q0 -48 3 -79.5t13.5 -66t31 -56t54 -40t84.5 -26.5t121 -8q134 0 416 26v-203q-211 -49 -428 -49q-310 0 -437 129.5t-127 436.5zM260 1585h315l269 -303h-258zM375 668h499v18q0 46 -4.5 81t-19.5 74t-41 64.5 t-73 42.5t-111 17q-63 0 -109.5 -17t-72.5 -43t-42 -64.5t-21 -74.5t-5 -80v-18z" />
<glyph unicode="&#xe9;" horiz-adv-x="1245" d="M104 535v71q0 576 521 576q520 0 520 -600v-90h-772v-21q0 -48 3 -79.5t13.5 -66t31 -56t54 -40t84.5 -26.5t121 -8q134 0 416 26v-203q-211 -49 -428 -49q-310 0 -437 129.5t-127 436.5zM375 668h499v18q0 46 -4.5 81t-19.5 74t-41 64.5t-73 42.5t-111 17 q-63 0 -109.5 -17t-72.5 -43t-42 -64.5t-21 -74.5t-5 -80v-18zM477 1282l271 303h313l-324 -303h-260z" />
<glyph unicode="&#xea;" horiz-adv-x="1245" d="M104 535v71q0 576 521 576q520 0 520 -600v-90h-772v-21q0 -48 3 -79.5t13.5 -66t31 -56t54 -40t84.5 -26.5t121 -8q134 0 416 26v-203q-211 -49 -428 -49q-310 0 -437 129.5t-127 436.5zM184 1282l277 303h336l276 -303h-248l-196 184l-195 -184h-250zM375 668h499v18 q0 46 -4.5 81t-19.5 74t-41 64.5t-73 42.5t-111 17q-63 0 -109.5 -17t-72.5 -43t-42 -64.5t-21 -74.5t-5 -80v-18z" />
<glyph unicode="&#xeb;" horiz-adv-x="1245" d="M104 535v71q0 576 521 576q520 0 520 -600v-90h-772v-21q0 -48 3 -79.5t13.5 -66t31 -56t54 -40t84.5 -26.5t121 -8q134 0 416 26v-203q-211 -49 -428 -49q-310 0 -437 129.5t-127 436.5zM262 1319v254h227v-254h-227zM375 668h499v18q0 46 -4.5 81t-19.5 74t-41 64.5 t-73 42.5t-111 17q-63 0 -109.5 -17t-72.5 -43t-42 -64.5t-21 -74.5t-5 -80v-18zM758 1319v254h225v-254h-225z" />
<glyph unicode="&#xec;" horiz-adv-x="587" d="M-98 1585h315l268 -303h-258zM158 0v1153h272v-1153h-272z" />
<glyph unicode="&#xed;" horiz-adv-x="587" d="M98 1282l271 303h313l-324 -303h-260zM158 0v1153h272v-1153h-272z" />
<glyph unicode="&#xee;" horiz-adv-x="587" d="M-150 1282l277 303h336l276 -303h-250l-194 184l-197 -184h-248zM158 0v1153h272v-1153h-272z" />
<glyph unicode="&#xef;" horiz-adv-x="587" d="M-70 1321v254h230v-254h-230zM158 0v1153h272v-1153h-272zM426 1321v254h227v-254h-227z" />
<glyph unicode="&#xf0;" horiz-adv-x="1249" d="M104 502v112q0 531 519 531q116 0 196 -41q-76 172 -246 246l-254 -172l-81 98l184 127q-104 22 -215 22q-30 0 -55 -2v185q66 4 86 4q203 0 366 -56l160 111l82 -96l-101 -74q201 -109 300.5 -329.5t99.5 -520.5v-121q0 -555 -520 -555q-257 0 -389 133t-132 398z M373 502q0 -163 59.5 -232t192.5 -69q134 0 193 68.5t59 232.5v125q0 155 -60 223t-192 68t-192 -69.5t-60 -230.5v-116z" />
<glyph unicode="&#xf1;" horiz-adv-x="1298" d="M150 0v1153h258v-92q210 121 378 121q69 0 123 -11.5t92.5 -31.5t66.5 -52.5t44.5 -67.5t26 -84t13 -96t3.5 -108v-731h-272v731q0 128 -32.5 175.5t-129.5 47.5q-110 0 -303 -77v-877h-268zM211 1284v57q0 273 229 273q53 0 97 -15t102 -51l92 -59q40 -26 65.5 -37.5 t53.5 -11.5q40 0 54 24.5t14 81.5v56h165v-56q0 -274 -221 -274q-101 0 -211 71l-90 58q-67 49 -115 49q-38 0 -52.5 -26.5t-14.5 -82.5v-57h-168z" />
<glyph unicode="&#xf2;" horiz-adv-x="1249" d="M104 506v141q0 268 133 401.5t388 133.5t387.5 -133.5t132.5 -401.5v-141q0 -270 -132.5 -403.5t-387.5 -133.5t-388 133.5t-133 403.5zM238 1585h313l270 -303h-260zM373 506q0 -164 59.5 -234.5t192.5 -70.5t192.5 70.5t59.5 234.5v141q0 164 -59 233.5t-193 69.5 q-132 0 -192 -70t-60 -233v-141z" />
<glyph unicode="&#xf3;" horiz-adv-x="1249" d="M104 506v141q0 268 133 401.5t388 133.5t387.5 -133.5t132.5 -401.5v-141q0 -270 -132.5 -403.5t-387.5 -133.5t-388 133.5t-133 403.5zM373 506q0 -164 59.5 -234.5t192.5 -70.5t192.5 70.5t59.5 234.5v141q0 164 -59 233.5t-193 69.5q-132 0 -192 -70t-60 -233v-141z M444 1282l269 303h315l-326 -303h-258z" />
<glyph unicode="&#xf4;" horiz-adv-x="1249" d="M104 506v141q0 268 133 401.5t388 133.5t387.5 -133.5t132.5 -401.5v-141q0 -270 -132.5 -403.5t-387.5 -133.5t-388 133.5t-133 403.5zM180 1282l277 303h336l276 -303h-248l-196 184l-195 -184h-250zM373 506q0 -164 59.5 -234.5t192.5 -70.5t192.5 70.5t59.5 234.5 v141q0 164 -59 233.5t-193 69.5q-132 0 -192 -70t-60 -233v-141z" />
<glyph unicode="&#xf5;" horiz-adv-x="1249" d="M104 506v141q0 268 133 401.5t388 133.5t387.5 -133.5t132.5 -401.5v-141q0 -270 -132.5 -403.5t-387.5 -133.5t-388 133.5t-133 403.5zM188 1284v57q0 137 59.5 205t170.5 68q54 0 96.5 -14.5t103.5 -51.5l91 -59q28 -18 43 -26.5t35.5 -15.5t39.5 -7q40 0 54 24.5 t14 81.5v56h166v-56q0 -274 -221 -274q-98 0 -211 71l-90 58q-67 49 -115 49q-38 0 -53 -26.5t-15 -82.5v-57h-168zM373 506q0 -164 59.5 -234.5t192.5 -70.5t192.5 70.5t59.5 234.5v141q0 164 -59 233.5t-193 69.5q-132 0 -192 -70t-60 -233v-141z" />
<glyph unicode="&#xf6;" horiz-adv-x="1249" d="M104 506v141q0 268 133 401.5t388 133.5t387.5 -133.5t132.5 -401.5v-141q0 -270 -132.5 -403.5t-387.5 -133.5t-388 133.5t-133 403.5zM264 1321v254h230v-254h-230zM373 506q0 -164 59.5 -234.5t192.5 -70.5t192.5 70.5t59.5 234.5v141q0 164 -59 233.5t-193 69.5 q-132 0 -192 -70t-60 -233v-141zM760 1321v254h227v-254h-227z" />
<glyph unicode="&#xf7;" horiz-adv-x="1411" d="M201 682v225h1007v-225h-1007zM571 186v299h269v-299h-269zM571 1098v299h269v-299h-269z" />
<glyph unicode="&#xf8;" horiz-adv-x="1249" d="M20 -20l156 202q-72 129 -72 324v141q0 268 133 401.5t388 133.5q155 0 272 -54l53 70h248l-147 -194q94 -133 94 -357v-141q0 -270 -132.5 -403.5t-387.5 -133.5q-184 0 -310 72l-45 -61h-250zM373 506q0 -44 2 -64l370 488q-47 20 -120 20q-132 0 -192 -70t-60 -233 v-141zM467 238q53 -37 158 -37q133 0 192.5 70.5t59.5 234.5v141q0 53 -11 117z" />
<glyph unicode="&#xf9;" d="M145 420v733h269v-733q0 -127 33.5 -175t132.5 -48t301 77v879h270v-1153h-260v92q-228 -123 -399 -123q-87 0 -151 25t-101 64.5t-59 101t-29 121.5t-7 139zM250 1585h313l268 -303h-258z" />
<glyph unicode="&#xfa;" d="M145 420v733h269v-733q0 -127 33.5 -175t132.5 -48t301 77v879h270v-1153h-260v92q-228 -123 -399 -123q-87 0 -151 25t-101 64.5t-59 101t-29 121.5t-7 139zM489 1282l271 303h313l-323 -303h-261z" />
<glyph unicode="&#xfb;" d="M145 420v733h269v-733q0 -127 33.5 -175t132.5 -48t301 77v879h270v-1153h-260v92q-228 -123 -399 -123q-87 0 -151 25t-101 64.5t-59 101t-29 121.5t-7 139zM209 1282l276 303h334l277 -303h-248l-197 184l-194 -184h-248z" />
<glyph unicode="&#xfc;" d="M145 420v733h269v-733q0 -127 33.5 -175t132.5 -48t301 77v879h270v-1153h-260v92q-228 -123 -399 -123q-87 0 -151 25t-101 64.5t-59 101t-29 121.5t-7 139zM291 1319v254h227v-254h-227zM786 1319v254h226v-254h-226z" />
<glyph unicode="&#xfd;" horiz-adv-x="1198" d="M41 1153h293l201 -612q14 -45 26.5 -94t27.5 -112t25 -102h4q47 213 76 308l183 612h280l-401 -1196q-32 -109 -66.5 -180.5t-84.5 -125t-118.5 -77t-162.5 -23.5q-152 0 -275 25v197q141 -9 217 -9q70 0 104.5 36t73.5 137l27 71zM453 1282l268 303h315l-325 -303h-258z " />
<glyph unicode="&#xfe;" horiz-adv-x="1259" d="M150 -422v2013h256v-512q159 103 325 103q424 0 424 -523v-151q0 -146 -36.5 -251.5t-105.5 -167t-159 -90t-207 -28.5q-79 0 -229 23v-416h-268zM416 219q123 -22 213 -22q65 0 110 13.5t80 47.5t51.5 95.5t16.5 154.5v151q0 158 -53 224.5t-168 66.5q-112 0 -250 -61 v-670z" />
<glyph unicode="&#xff;" horiz-adv-x="1198" d="M41 1153h293l201 -612q15 -45 27.5 -94t27 -112t24.5 -102h4q47 213 76 308l183 612h280l-401 -1196q-30 -88 -56.5 -147.5t-62 -112t-78.5 -82.5t-101 -47t-134 -17q-152 0 -275 25v197q141 -9 217 -9q70 0 104.5 36t73.5 137l27 71zM258 1319v254h227v-254h-227z M752 1319v254h227v-254h-227z" />
<glyph unicode="&#x100;" horiz-adv-x="1443" d="M47 0l461 1522h428l461 -1522h-301l-131 426h-490l-135 -426h-293zM338 1667v182h770v-182h-770zM528 662h381l-127 419q-28 91 -53 240h-18q-34 -173 -54 -240z" />
<glyph unicode="&#x101;" horiz-adv-x="1181" d="M94 299v43q0 65 13.5 116t37 87.5t62.5 62.5t81 42t101.5 25t117 12t132.5 3h137v72q0 65 -8 100.5t-35.5 58.5t-71.5 30t-124 7q-163 0 -363 -22v182q50 20 167 42t241 22q111 0 190 -16t133 -46.5t85 -82.5t44 -117.5t13 -157.5v-762h-250v76q-65 -44 -159 -75.5 t-206 -31.5q-164 0 -251 82.5t-87 247.5zM211 1339v181h770v-181h-770zM356 301q0 -75 42 -105t120 -30q74 0 149 23t115 47v288h-143q-65 0 -106.5 -3.5t-78.5 -14t-56.5 -30t-30.5 -50t-11 -76.5v-49z" />
<glyph unicode="&#x102;" horiz-adv-x="1443" d="M47 0l461 1522h428l461 -1522h-301l-131 426h-490l-135 -426h-293zM338 1933h172q10 -94 63 -133t148 -39q97 0 150 39t65 133h172q-15 -158 -115 -240.5t-272 -82.5q-171 0 -270.5 82.5t-112.5 240.5zM528 662h381l-127 419q-28 91 -53 240h-18q-34 -173 -54 -240z" />
<glyph unicode="&#x103;" horiz-adv-x="1181" d="M94 299v43q0 65 13.5 116t37 87.5t62.5 62.5t81 42t101.5 25t117 12t132.5 3h137v72q0 65 -8 100.5t-35.5 58.5t-71.5 30t-124 7q-163 0 -363 -22v182q50 20 167 42t241 22q111 0 190 -16t133 -46.5t85 -82.5t44 -117.5t13 -157.5v-762h-250v76q-65 -44 -159 -75.5 t-206 -31.5q-164 0 -251 82.5t-87 247.5zM221 1602h172q11 -94 64 -133t149 -39q97 0 149.5 39t65.5 133h170q-15 -158 -114.5 -241t-270.5 -83t-270.5 83t-114.5 241zM356 301q0 -75 42 -105t120 -30q74 0 149 23t115 47v288h-143q-65 0 -106.5 -3.5t-78.5 -14t-56.5 -30 t-30.5 -50t-11 -76.5v-49z" />
<glyph unicode="&#x104;" horiz-adv-x="1443" d="M47 0l461 1522h428l461 -1522q-87 -35 -144.5 -65t-85.5 -55t-38.5 -43.5t-10.5 -39.5q0 -39 26 -58.5t89 -19.5q18 0 164 11v-146q-98 -28 -226 -28q-138 0 -210 53.5t-72 157.5q0 65 53 130t150 115l-127 414h-490l-135 -426h-293zM528 662h381l-127 419 q-28 91 -53 240h-18q-34 -173 -54 -240z" />
<glyph unicode="&#x105;" horiz-adv-x="1181" d="M94 299v43q0 65 13.5 116t37 87.5t62.5 62.5t81 42t101.5 25t117 12t132.5 3h137v72q0 65 -8 100.5t-35.5 58.5t-71.5 30t-124 7q-163 0 -363 -22v182q50 20 167 42t241 22q111 0 190 -16t133 -46.5t85 -82.5t44 -117.5t13 -157.5v-762q-87 -35 -144.5 -65t-85.5 -55 t-38.5 -43.5t-10.5 -39.5q0 -39 26 -58.5t89 -19.5q18 0 164 11v-146q-98 -28 -226 -28q-138 0 -210 52t-72 150q0 70 70.5 140t187.5 122v56q-65 -44 -159 -75.5t-206 -31.5q-164 0 -251 82.5t-87 247.5zM356 301q0 -75 42 -105t120 -30q74 0 149 23t115 47v288h-143 q-65 0 -106.5 -3.5t-78.5 -14t-56.5 -30t-30.5 -50t-11 -76.5v-49z" />
<glyph unicode="&#x106;" horiz-adv-x="1202" d="M106 659v203q0 160 30.5 280.5t85 198t137.5 125.5t178.5 67t218.5 19q91 0 206.5 -13.5t176.5 -27.5v-227q-238 19 -365 19q-100 0 -168 -20t-117.5 -69t-72.5 -135.5t-23 -216.5v-203q0 -130 23 -216.5t72.5 -136t117.5 -69.5t168 -20q128 0 365 19v-230 q-59 -14 -174.5 -26.5t-208.5 -12.5q-123 0 -218.5 19.5t-178.5 67.5t-137.5 125.5t-85 198.5t-30.5 281zM553 1616l270 305h314l-324 -305h-260z" />
<glyph unicode="&#x107;" horiz-adv-x="1028" d="M104 504v145q0 266 119.5 399.5t366.5 133.5q214 0 356 -43v-205q-218 18 -309 18q-67 0 -112.5 -12.5t-81 -45t-52 -93t-16.5 -152.5v-145q0 -91 16.5 -152t52 -94t81 -46t112.5 -13q91 0 309 18v-205q-163 -43 -356 -43q-486 0 -486 535zM434 1282l268 303h314 l-324 -303h-258z" />
<glyph unicode="&#x108;" horiz-adv-x="1202" d="M106 659v203q0 160 30.5 280.5t85 198t137.5 125.5t178.5 67t218.5 19q91 0 206.5 -13.5t176.5 -27.5v-227q-238 19 -365 19q-100 0 -168 -20t-117.5 -69t-72.5 -135.5t-23 -216.5v-203q0 -130 23 -216.5t72.5 -136t117.5 -69.5t168 -20q128 0 365 19v-230 q-59 -14 -174.5 -26.5t-208.5 -12.5q-123 0 -218.5 19.5t-178.5 67.5t-137.5 125.5t-85 198.5t-30.5 281zM236 1616l276 305h336l276 -305h-250l-194 186l-197 -186h-247z" />
<glyph unicode="&#x109;" horiz-adv-x="1028" d="M104 504v145q0 266 119.5 399.5t366.5 133.5q214 0 356 -43v-205q-218 18 -309 18q-67 0 -112.5 -12.5t-81 -45t-52 -93t-16.5 -152.5v-145q0 -91 16.5 -152t52 -94t81 -46t112.5 -13q91 0 309 18v-205q-163 -43 -356 -43q-486 0 -486 535zM137 1282l277 303h336 l276 -303h-250l-194 184l-197 -184h-248z" />
<glyph unicode="&#x10a;" horiz-adv-x="1202" d="M106 659v203q0 160 30.5 280.5t85 198t137.5 125.5t178.5 67t218.5 19q91 0 206.5 -13.5t176.5 -27.5v-227q-238 19 -365 19q-100 0 -168 -20t-117.5 -69t-72.5 -135.5t-23 -216.5v-203q0 -130 23 -216.5t72.5 -136t117.5 -69.5t168 -20q128 0 365 19v-230 q-59 -14 -174.5 -26.5t-208.5 -12.5q-123 0 -218.5 19.5t-178.5 67.5t-137.5 125.5t-85 198.5t-30.5 281zM575 1645v256h277v-256h-277z" />
<glyph unicode="&#x10b;" horiz-adv-x="1028" d="M104 504v145q0 266 119.5 399.5t366.5 133.5q214 0 356 -43v-205q-218 18 -309 18q-67 0 -112.5 -12.5t-81 -45t-52 -93t-16.5 -152.5v-145q0 -91 16.5 -152t52 -94t81 -46t112.5 -13q91 0 309 18v-205q-163 -43 -356 -43q-486 0 -486 535zM461 1333v254h276v-254h-276z " />
<glyph unicode="&#x10c;" horiz-adv-x="1202" d="M106 659v203q0 160 30.5 280.5t85 198t137.5 125.5t178.5 67t218.5 19q91 0 206.5 -13.5t176.5 -27.5v-227q-238 19 -365 19q-100 0 -168 -20t-117.5 -69t-72.5 -135.5t-23 -216.5v-203q0 -130 23 -216.5t72.5 -136t117.5 -69.5t168 -20q128 0 365 19v-230 q-59 -14 -174.5 -26.5t-208.5 -12.5q-123 0 -218.5 19.5t-178.5 67.5t-137.5 125.5t-85 198.5t-30.5 281zM268 1921h248l195 -186l196 186h248l-276 -305h-334z" />
<glyph unicode="&#x10d;" horiz-adv-x="1028" d="M104 504v145q0 266 119.5 399.5t366.5 133.5q214 0 356 -43v-205q-218 18 -309 18q-67 0 -112.5 -12.5t-81 -45t-52 -93t-16.5 -152.5v-145q0 -91 16.5 -152t52 -94t81 -46t112.5 -13q91 0 309 18v-205q-163 -43 -356 -43q-486 0 -486 535zM137 1585h248l195 -186 l196 186h248l-274 -303h-336z" />
<glyph unicode="&#x10e;" horiz-adv-x="1445" d="M162 0v1522q276 12 475 12q365 0 533.5 -167.5t168.5 -506.5v-192q0 -345 -165 -512.5t-537 -167.5q-199 0 -475 12zM272 1919h250l195 -186l196 186h248l-276 -305h-336zM442 229h189q225 0 324.5 97.5t99.5 341.5v192q0 124 -24.5 207t-78.5 132.5t-130.5 70 t-190.5 20.5h-189v-1061z" />
<glyph unicode="&#x10f;" horiz-adv-x="1554" d="M104 485v164q0 149 35.5 254t103.5 165t156 87t203 27q112 0 240 -23v432h270v-1591h-254v59q-143 -90 -323 -90q-207 0 -319 128.5t-112 387.5zM375 485q0 -155 54.5 -220.5t180.5 -65.5q116 0 234 51v686q-130 20 -215 20q-66 0 -109.5 -11.5t-78 -44t-50.5 -94 t-16 -157.5v-164zM1231 1090l108 501h256l-165 -501h-199z" />
<glyph unicode="&#x110;" horiz-adv-x="1445" d="M55 672v225h107v625q237 12 475 12q365 0 533.5 -167.5t168.5 -506.5v-192q0 -345 -165 -512.5t-537 -167.5q-235 0 -475 12v672h-107zM442 229h189q225 0 324.5 97.5t99.5 341.5v192q0 124 -24.5 207t-78.5 132.5t-130.5 70t-190.5 20.5h-189v-393h267v-225h-267v-443z " />
<glyph unicode="&#x111;" horiz-adv-x="1286" d="M104 485v164q0 149 35.5 254t103.5 165t156 87t203 27q112 0 240 -23v139h-346v168h346v125h270v-125h119v-168h-119v-1298h-254v59q-143 -90 -323 -90q-207 0 -319 128.5t-112 387.5zM375 485q0 -155 54.5 -220.5t180.5 -65.5q119 0 234 51v686q-130 20 -215 20 q-66 0 -109.5 -11.5t-78 -44t-50.5 -94t-16 -157.5v-164z" />
<glyph unicode="&#x112;" horiz-adv-x="1236" d="M162 0v1522h968v-238h-681v-387h638v-229h-638v-432h681v-236h-968zM268 1667v182h770v-182h-770z" />
<glyph unicode="&#x113;" horiz-adv-x="1245" d="M104 535v71q0 576 521 576q520 0 520 -600v-90h-772v-21q0 -48 3 -79.5t13.5 -66t31 -56t54 -40t84.5 -26.5t121 -8q134 0 416 26v-203q-211 -49 -428 -49q-310 0 -437 129.5t-127 436.5zM233 1339v181h768v-181h-768zM375 668h499v18q0 46 -4.5 81t-19.5 74t-41 64.5 t-73 42.5t-111 17q-63 0 -109.5 -17t-72.5 -43t-42 -64.5t-21 -74.5t-5 -80v-18z" />
<glyph unicode="&#x114;" horiz-adv-x="1236" d="M162 0v1522h968v-238h-681v-387h638v-229h-638v-432h681v-236h-968zM274 1933h172q10 -94 63 -133t148 -39q97 0 150 39t65 133h172q-15 -158 -115 -240.5t-272 -82.5q-171 0 -270.5 82.5t-112.5 240.5z" />
<glyph unicode="&#x115;" horiz-adv-x="1245" d="M104 535v71q0 576 521 576q520 0 520 -600v-90h-772v-21q0 -48 3 -79.5t13.5 -66t31 -56t54 -40t84.5 -26.5t121 -8q134 0 416 26v-203q-211 -49 -428 -49q-310 0 -437 129.5t-127 436.5zM240 1599h172q10 -93 63 -131t148 -38q98 0 151 37.5t64 131.5h172 q-15 -157 -115 -239t-272 -82q-170 0 -270 82t-113 239zM375 668h499v18q0 46 -4.5 81t-19.5 74t-41 64.5t-73 42.5t-111 17q-63 0 -109.5 -17t-72.5 -43t-42 -64.5t-21 -74.5t-5 -80v-18z" />
<glyph unicode="&#x116;" horiz-adv-x="1236" d="M162 0v1522h968v-238h-681v-387h638v-229h-638v-432h681v-236h-968zM508 1645v256h274v-256h-274z" />
<glyph unicode="&#x117;" horiz-adv-x="1245" d="M104 535v71q0 576 521 576q520 0 520 -600v-90h-772v-21q0 -48 3 -79.5t13.5 -66t31 -56t54 -40t84.5 -26.5t121 -8q134 0 416 26v-203q-211 -49 -428 -49q-310 0 -437 129.5t-127 436.5zM375 668h499v18q0 46 -4.5 81t-19.5 74t-41 64.5t-73 42.5t-111 17 q-63 0 -109.5 -17t-72.5 -43t-42 -64.5t-21 -74.5t-5 -80v-18zM479 1333v254h277v-254h-277z" />
<glyph unicode="&#x118;" horiz-adv-x="1236" d="M162 0v1522h968v-238h-681v-387h638v-229h-638v-432h681v-236q-114 -45 -178 -84.5t-82 -65t-18 -53.5q0 -39 26 -58.5t89 -19.5q17 0 163 11v-146q-98 -28 -225 -28q-138 0 -210 52t-72 150q0 71 56.5 134t166.5 108h-684z" />
<glyph unicode="&#x119;" horiz-adv-x="1245" d="M104 535v71q0 576 521 576q520 0 520 -600v-90h-772v-21q0 -48 3 -79.5t13.5 -66t31 -56t54 -40t84.5 -26.5t121 -8q134 0 416 26v-203q-281 -111 -281 -221q0 -39 27 -58.5t90 -19.5q13 0 164 11v-146q-98 -28 -226 -28q-138 0 -211 52t-73 150q0 55 34.5 110.5 t100.5 100.5h-53q-310 0 -437 129.5t-127 436.5zM375 668h499v18q0 46 -4.5 81t-19.5 74t-41 64.5t-73 42.5t-111 17q-63 0 -109.5 -17t-72.5 -43t-42 -64.5t-21 -74.5t-5 -80v-18z" />
<glyph unicode="&#x11a;" horiz-adv-x="1236" d="M162 0v1522h968v-238h-681v-387h638v-229h-638v-432h681v-236h-968zM211 1921h250l194 -186l197 186h248l-277 -305h-336z" />
<glyph unicode="&#x11b;" horiz-adv-x="1245" d="M104 535v71q0 576 521 576q520 0 520 -600v-90h-772v-21q0 -48 3 -79.5t13.5 -66t31 -56t54 -40t84.5 -26.5t121 -8q134 0 416 26v-203q-211 -49 -428 -49q-310 0 -437 129.5t-127 436.5zM197 1585h247l195 -186l197 186h247l-274 -303h-336zM375 668h499v18 q0 46 -4.5 81t-19.5 74t-41 64.5t-73 42.5t-111 17q-63 0 -109.5 -17t-72.5 -43t-42 -64.5t-21 -74.5t-5 -80v-18z" />
<glyph unicode="&#x11c;" horiz-adv-x="1370" d="M106 653v215q0 122 19.5 221t52.5 169t82.5 123t103.5 85t121 52t129.5 27t135.5 7q148 0 294 -18t195 -33v-219q-257 21 -440 21q-81 0 -138.5 -8.5t-111.5 -35.5t-86.5 -74t-52 -126.5t-19.5 -190.5v-215q0 -129 23 -214.5t72 -134t115 -68t163 -19.5q126 0 205 6v588 h272v-797q-219 -47 -498 -47q-111 0 -200.5 18t-173 65t-140 123t-90 197.5t-33.5 282.5zM268 1616l277 305h336l274 -305h-248l-196 186l-195 -186h-248z" />
<glyph unicode="&#x11d;" horiz-adv-x="1261" d="M106 518v129q0 276 134.5 405.5t431.5 129.5q183 0 442 -29v-1196q0 -79 -13 -139t-46.5 -111.5t-88.5 -85t-141 -52t-202 -18.5q-90 0 -197 10.5t-164 19.5t-90 16v184q306 -19 434 -19q79 0 127 11t72 38t31.5 59t7.5 87v45q-99 -16 -207 -16q-263 0 -397 126t-134 406 zM193 1282l276 303h336l276 -303h-250l-194 184l-197 -184h-247zM377 518q0 -172 61 -239.5t213 -67.5q130 0 193 14v719q-69 12 -189 12q-160 0 -219 -72t-59 -239v-127z" />
<glyph unicode="&#x11e;" horiz-adv-x="1370" d="M106 653v215q0 122 19.5 221t52.5 169t82.5 123t103.5 85t121 52t129.5 27t135.5 7q148 0 294 -18t195 -33v-219q-257 21 -440 21q-81 0 -138.5 -8.5t-111.5 -35.5t-86.5 -74t-52 -126.5t-19.5 -190.5v-215q0 -129 23 -214.5t72 -134t115 -68t163 -19.5q126 0 205 6v588 h272v-797q-219 -47 -498 -47q-111 0 -200.5 18t-173 65t-140 123t-90 197.5t-33.5 282.5zM354 1937h172q11 -94 64 -133t149 -39q97 0 149.5 39t65.5 133h170q-15 -159 -114 -241t-271 -82t-271 82t-114 241z" />
<glyph unicode="&#x11f;" horiz-adv-x="1261" d="M106 518v129q0 276 134.5 405.5t431.5 129.5q183 0 442 -29v-1196q0 -79 -13 -139t-46.5 -111.5t-88.5 -85t-141 -52t-202 -18.5q-90 0 -197 10.5t-164 19.5t-90 16v184q306 -19 434 -19q79 0 127 11t72 38t31.5 59t7.5 87v45q-99 -16 -207 -16q-263 0 -397 126t-134 406 zM252 1599h172q11 -94 64 -131.5t149 -37.5t149 37.5t64 131.5h172q-15 -157 -114.5 -239t-270.5 -82q-172 0 -272 82t-113 239zM377 518q0 -172 61 -239.5t213 -67.5q130 0 193 14v719q-69 12 -189 12q-160 0 -219 -72t-59 -239v-127z" />
<glyph unicode="&#x120;" horiz-adv-x="1370" d="M106 653v215q0 122 19.5 221t52.5 169t82.5 123t103.5 85t121 52t129.5 27t135.5 7q148 0 294 -18t195 -33v-219q-257 21 -440 21q-81 0 -138.5 -8.5t-111.5 -35.5t-86.5 -74t-52 -126.5t-19.5 -190.5v-215q0 -129 23 -214.5t72 -134t115 -68t163 -19.5q126 0 205 6v588 h272v-797q-219 -47 -498 -47q-111 0 -200.5 18t-173 65t-140 123t-90 197.5t-33.5 282.5zM592 1645v256h276v-256h-276z" />
<glyph unicode="&#x121;" horiz-adv-x="1261" d="M106 518v129q0 276 134.5 405.5t431.5 129.5q183 0 442 -29v-1196q0 -79 -13 -139t-46.5 -111.5t-88.5 -85t-141 -52t-202 -18.5q-90 0 -197 10.5t-164 19.5t-90 16v184q306 -19 434 -19q79 0 127 11t72 38t31.5 59t7.5 87v45q-99 -16 -207 -16q-263 0 -397 126t-134 406 zM377 518q0 -172 61 -239.5t213 -67.5q130 0 193 14v719q-69 12 -189 12q-160 0 -219 -72t-59 -239v-127zM500 1333v254h274v-254h-274z" />
<glyph unicode="&#x122;" horiz-adv-x="1370" d="M106 653v215q0 122 19.5 221t52.5 169t82.5 123t103.5 85t121 52t129.5 27t135.5 7q148 0 294 -18t195 -33v-219q-257 21 -440 21q-81 0 -138.5 -8.5t-111.5 -35.5t-86.5 -74t-52 -126.5t-19.5 -190.5v-215q0 -129 23 -214.5t72 -134t115 -68t163 -19.5q126 0 205 6v588 h272v-797q-219 -47 -498 -47q-111 0 -200.5 18t-173 65t-140 123t-90 197.5t-33.5 282.5zM469 -422l137 289h291l-188 -289h-240z" />
<glyph unicode="&#x123;" horiz-adv-x="1261" d="M106 518v129q0 276 134.5 405.5t431.5 129.5q183 0 442 -29v-1196q0 -79 -13 -139t-46.5 -111.5t-88.5 -85t-141 -52t-202 -18.5q-90 0 -197 10.5t-164 19.5t-90 16v184q306 -19 434 -19q79 0 127 11t72 38t31.5 59t7.5 87v45q-99 -16 -207 -16q-263 0 -397 126t-134 406 zM377 518q0 -172 61 -239.5t213 -67.5q130 0 193 14v719q-69 12 -189 12q-160 0 -219 -72t-59 -239v-127zM516 1280l189 289h239l-137 -289h-291z" />
<glyph unicode="&#x124;" horiz-adv-x="1562" d="M162 0v1522h287v-607h665v607h287v-1522h-287v670h-665v-670h-287zM342 1614l276 305h334l277 -305h-248l-197 186l-194 -186h-248z" />
<glyph unicode="&#x125;" d="M150 0v1591h268v-495q160 86 358 86q205 0 292 -114.5t87 -336.5v-731h-272v727q0 131 -40 179t-143 48q-145 0 -282 -63v-891h-268zM203 1626l276 305h336l277 -305h-248l-197 184l-194 -184h-250z" />
<glyph unicode="&#x126;" horiz-adv-x="1562" d="M33 1124v156h129v242h287v-242h665v242h287v-242h129v-156h-129v-1124h-287v670h-665v-670h-287v1124h-129zM449 915h665v209h-665v-209z" />
<glyph unicode="&#x127;" d="M33 1305v161h117v125h270v-125h350v-161h-350v-209q65 36 160 61t196 25q206 0 292.5 -114t86.5 -337v-731h-272v727q0 131 -40 179t-143 48q-147 0 -280 -63v-891h-270v1305h-117z" />
<glyph unicode="&#x128;" horiz-adv-x="610" d="M-133 1616v57q0 273 227 273q55 0 99.5 -14.5t101.5 -51.5l92 -59q73 -49 119 -49q39 0 53 24.5t14 81.5v55h164v-55q0 -274 -219 -274q-100 0 -213 71l-90 58q-67 49 -113 49q-39 0 -53 -26t-14 -83v-57h-168zM162 0v1522h287v-1522h-287z" />
<glyph unicode="&#x129;" horiz-adv-x="587" d="M-141 1284v57q0 273 229 273q53 0 97 -15t102 -51l92 -59q40 -26 65.5 -37.5t53.5 -11.5q39 0 53 24.5t14 81.5v56h166v-56q0 -274 -221 -274q-101 0 -211 71l-90 58q-67 49 -115 49q-38 0 -52.5 -26.5t-14.5 -82.5v-57h-168zM158 0v1153h272v-1153h-272z" />
<glyph unicode="&#x12a;" horiz-adv-x="610" d="M-80 1667v182h770v-182h-770zM162 0v1522h287v-1522h-287z" />
<glyph unicode="&#x12b;" horiz-adv-x="587" d="M-90 1339v181h770v-181h-770zM158 0v1153h272v-1153h-272z" />
<glyph unicode="&#x12c;" horiz-adv-x="610" d="M-80 1939h172q11 -94 64 -133t149 -39q97 0 149.5 39t65.5 133h170q-15 -159 -114 -241t-271 -82t-271 82t-114 241zM162 0v1522h287v-1522h-287z" />
<glyph unicode="&#x12d;" horiz-adv-x="587" d="M-90 1599h172q11 -94 64 -131.5t149 -37.5t149 37.5t64 131.5h172q-15 -157 -114.5 -239t-270.5 -82q-172 0 -272 82t-113 239zM158 0v1153h272v-1153h-272z" />
<glyph unicode="&#x12e;" horiz-adv-x="610" d="M47 -221q0 54 29.5 113t85.5 108v1522h287v-1522q-173 -91 -173 -182q0 -42 28 -70.5t89 -28.5q13 0 164 11v-146q-98 -28 -225 -28q-135 0 -210 61t-75 162z" />
<glyph unicode="&#x12f;" horiz-adv-x="587" d="M37 -231q0 130 121 235v1149h272v-1153q-164 -102 -164 -199q0 -82 115 -82q18 0 164 11v-146q-98 -28 -226 -28q-139 0 -210.5 54t-71.5 159zM156 1331v260h278v-260h-278z" />
<glyph unicode="&#x130;" horiz-adv-x="610" d="M162 0v1522h287v-1522h-287zM168 1645v256h274v-256h-274z" />
<glyph unicode="&#x131;" horiz-adv-x="587" d="M158 0v1153h272v-1153h-272z" />
<glyph unicode="&#x132;" horiz-adv-x="1241" d="M168 0v1522h285v-1522h-285zM537 -227q43 -2 125 -2t104 29.5t22 115.5v1606h285v-1598q0 -195 -82.5 -280.5t-277.5 -85.5q-120 0 -176 16v199z" />
<glyph unicode="&#x133;" horiz-adv-x="1189" d="M160 1331v260h276v-260h-276zM162 0v1153h270v-1153h-270zM528 -244q33 -2 119 -2q69 0 90 30t21 120v1249h270v-1249q0 -199 -73.5 -277t-256.5 -78q-102 0 -170 15v192zM756 1331v260h276v-260h-276z" />
<glyph unicode="&#x134;" horiz-adv-x="608" d="M-139 1616l276 305h334l277 -305h-248l-197 186l-194 -186h-248zM-90 -426l6 207q21 -2 60.5 -5t58.5 -5q82 0 104.5 30t22.5 115v1606h284v-1598q0 -195 -82.5 -280.5t-277.5 -85.5q-120 0 -176 16z" />
<glyph unicode="&#x135;" horiz-adv-x="587" d="M-150 1282l277 303h336l274 -303h-248l-196 184l-195 -184h-248zM-70 -244q15 0 54 -1t63 -1q70 0 90.5 30.5t20.5 121.5v1247h272v-1247q0 -199 -74.5 -277t-257.5 -78q-106 0 -168 15v190z" />
<glyph unicode="&#x136;" horiz-adv-x="1404" d="M170 0v1522h287v-709l585 709h344l-628 -750l624 -772h-360l-565 717v-717h-287zM485 -422l138 289h290l-188 -289h-240z" />
<glyph unicode="&#x137;" horiz-adv-x="1173" d="M150 0v1591h268v-952l409 514h310l-447 -553l459 -600h-324l-407 547v-547h-268zM334 -422l137 289h291l-189 -289h-239z" />
<glyph unicode="&#x138;" horiz-adv-x="1173" d="M150 0v1153h268v-514l409 514h310l-447 -553l459 -600h-324l-407 547v-547h-268z" />
<glyph unicode="&#x139;" horiz-adv-x="1146" d="M162 0v1522h287v-1280h645v-242h-932zM451 1616l268 305h313l-323 -305h-258z" />
<glyph unicode="&#x13a;" horiz-adv-x="585" d="M127 1628l268 305h314l-324 -305h-258zM158 0v1591h270v-1591h-270z" />
<glyph unicode="&#x13b;" horiz-adv-x="1146" d="M162 0v1522h287v-1280h645v-242h-932zM371 -422l139 289h291l-191 -289h-239z" />
<glyph unicode="&#x13c;" horiz-adv-x="585" d="M10 -422l137 289h291l-188 -289h-240zM158 0v1591h270v-1591h-270z" />
<glyph unicode="&#x13d;" horiz-adv-x="1146" d="M162 0v1522h287v-1280h645v-242h-932zM676 1063l110 504h256l-172 -504h-194z" />
<glyph unicode="&#x13e;" horiz-adv-x="888" d="M158 0v1591h270v-1591h-270zM563 1090l111 501h256l-172 -501h-195z" />
<glyph unicode="&#x13f;" horiz-adv-x="1146" d="M162 0v1522h287v-1280h645v-242h-932zM666 713v317h262v-317h-262z" />
<glyph unicode="&#x140;" horiz-adv-x="888" d="M158 0v1591h270v-1591h-270zM586 596v317h262v-317h-262z" />
<glyph unicode="&#x141;" horiz-adv-x="1146" d="M6 434v221l154 129v738h286v-529l205 176v-221l-205 -176v-530h648v-242h-934v565z" />
<glyph unicode="&#x142;" horiz-adv-x="667" d="M35 424v268l164 150v749h270v-485l164 147v-268l-164 -145v-840h-270v573z" />
<glyph unicode="&#x143;" horiz-adv-x="1517" d="M162 0v1522h332l485 -885q63 -110 117 -231h4q-8 120 -8 288v828h264v-1522h-334l-487 903q-81 154 -115 227h-4q8 -172 8 -272v-858h-262zM604 1616l268 305h314l-324 -305h-258z" />
<glyph unicode="&#x144;" horiz-adv-x="1298" d="M150 0v1153h258v-92q210 121 378 121q69 0 123 -11.5t92.5 -31.5t66.5 -52.5t44.5 -67.5t26 -84t13 -96t3.5 -108v-731h-272v731q0 128 -32.5 175.5t-129.5 47.5q-110 0 -303 -77v-877h-268zM498 1282l270 303h313l-323 -303h-260z" />
<glyph unicode="&#x145;" horiz-adv-x="1517" d="M162 0v1522h332l485 -885q63 -110 117 -231h4q-8 120 -8 288v828h264v-1522h-334l-487 903q-81 154 -115 227h-4q8 -172 8 -272v-858h-262zM508 -422l137 289h291l-188 -289h-240z" />
<glyph unicode="&#x146;" horiz-adv-x="1298" d="M150 0v1153h258v-92q210 121 378 121q69 0 123 -11.5t92.5 -31.5t66.5 -52.5t44.5 -67.5t26 -84t13 -96t3.5 -108v-731h-272v731q0 128 -32.5 175.5t-129.5 47.5q-110 0 -303 -77v-877h-268zM377 -422l139 289h291l-191 -289h-239z" />
<glyph unicode="&#x147;" horiz-adv-x="1517" d="M162 0v1522h332l485 -885q63 -110 117 -231h4q-8 120 -8 288v828h264v-1522h-334l-487 903q-81 154 -115 227h-4q8 -172 8 -272v-858h-262zM315 1921h248l195 -186l196 186h248l-274 -305h-336z" />
<glyph unicode="&#x148;" horiz-adv-x="1298" d="M150 0v1153h258v-92q210 121 378 121q69 0 123 -11.5t92.5 -31.5t66.5 -52.5t44.5 -67.5t26 -84t13 -96t3.5 -108v-731h-272v731q0 128 -32.5 175.5t-129.5 47.5q-110 0 -303 -77v-877h-268zM219 1585h248l195 -186l196 186h248l-277 -303h-333z" />
<glyph unicode="&#x149;" horiz-adv-x="1445" d="M-47 1090l110 501h256l-172 -501h-194zM297 0v1153h258v-92q210 121 379 121q69 0 123 -11.5t92.5 -31.5t66.5 -52.5t44.5 -67.5t26 -84t13 -96t3.5 -108v-731h-273v731q0 128 -32.5 175.5t-129.5 47.5q-110 0 -303 -77v-877h-268z" />
<glyph unicode="&#x14a;" horiz-adv-x="1517" d="M162 0v1522h332l487 -791q34 -57 117 -233h4q-10 115 -10 288v736h266v-1598q0 -195 -84 -280.5t-279 -85.5q-117 0 -176 16v197h125q82 0 104.5 30t22.5 115v117l-534 870q-34 56 -117 227h-4q8 -115 8 -272v-858h-262z" />
<glyph unicode="&#x14b;" horiz-adv-x="1298" d="M150 0v1153h258v-92q210 121 383 121q68 0 121.5 -11.5t91.5 -31.5t65.5 -52.5t44 -67.5t26 -84t12.5 -96t3 -108v-825q0 -194 -74 -273t-252 -79q-102 0 -174 16v190q66 -4 119 -4q69 0 90 30.5t21 119.5v825q0 128 -33 175.5t-129 47.5q-117 0 -303 -77v-877h-270z" />
<glyph unicode="&#x14c;" horiz-adv-x="1464" d="M106 672v178q0 358 163 530t462 172t463 -172t164 -530v-178q0 -360 -163.5 -532.5t-463.5 -172.5t-462.5 172.5t-162.5 532.5zM346 1667v182h770v-182h-770zM391 672q0 -245 88 -351t252 -106q165 0 253.5 106t88.5 351v176q0 244 -88 349.5t-254 105.5 q-165 0 -252.5 -105.5t-87.5 -349.5v-176z" />
<glyph unicode="&#x14d;" horiz-adv-x="1249" d="M104 506v141q0 268 133 401.5t388 133.5t387.5 -133.5t132.5 -401.5v-141q0 -270 -132.5 -403.5t-387.5 -133.5t-388 133.5t-133 403.5zM240 1339v181h770v-181h-770zM373 506q0 -164 59.5 -234.5t192.5 -70.5t192.5 70.5t59.5 234.5v141q0 164 -59 233.5t-193 69.5 q-132 0 -192 -70t-60 -233v-141z" />
<glyph unicode="&#x14e;" horiz-adv-x="1464" d="M106 672v178q0 358 163 530t462 172t463 -172t164 -530v-178q0 -360 -163.5 -532.5t-463.5 -172.5t-462.5 172.5t-162.5 532.5zM346 1931h172q11 -94 64 -132t149 -38t149 38t64 132h172q-15 -157 -114.5 -240t-270.5 -83t-271.5 83t-113.5 240zM391 672q0 -245 88 -351 t252 -106q165 0 253.5 106t88.5 351v176q0 244 -88 349.5t-254 105.5q-165 0 -252.5 -105.5t-87.5 -349.5v-176z" />
<glyph unicode="&#x14f;" horiz-adv-x="1249" d="M104 506v141q0 268 133 401.5t388 133.5t387.5 -133.5t132.5 -401.5v-141q0 -270 -132.5 -403.5t-387.5 -133.5t-388 133.5t-133 403.5zM240 1599h172q11 -94 64 -131.5t149 -37.5t149 37.5t64 131.5h172q-15 -157 -114.5 -239t-270.5 -82t-270.5 82t-114.5 239zM373 506 q0 -164 59.5 -234.5t192.5 -70.5t192.5 70.5t59.5 234.5v141q0 164 -59 233.5t-193 69.5q-132 0 -192 -70t-60 -233v-141z" />
<glyph unicode="&#x150;" horiz-adv-x="1464" d="M106 672v178q0 358 163 530t462 172t463 -172t164 -530v-178q0 -360 -163.5 -532.5t-463.5 -172.5t-462.5 172.5t-162.5 532.5zM336 1614l268 305h303l-325 -305h-246zM391 672q0 -245 88 -351t252 -106q165 0 253.5 106t88.5 351v176q0 244 -88 349.5t-254 105.5 q-165 0 -252.5 -105.5t-87.5 -349.5v-176zM836 1614l270 305h301l-326 -305h-245z" />
<glyph unicode="&#x151;" horiz-adv-x="1249" d="M104 506v141q0 268 133 401.5t388 133.5t387.5 -133.5t132.5 -401.5v-141q0 -270 -132.5 -403.5t-387.5 -133.5t-388 133.5t-133 403.5zM250 1282l270 303h301l-323 -303h-248zM373 506q0 -164 59.5 -234.5t192.5 -70.5t192.5 70.5t59.5 234.5v141q0 164 -59 233.5 t-193 69.5q-132 0 -192 -70t-60 -233v-141zM750 1282l270 303h301l-324 -303h-247z" />
<glyph unicode="&#x152;" horiz-adv-x="2025" d="M102 668v184q0 358 162 528t463 170q134 0 309 -28h885v-238h-682v-387h639v-229h-639v-432h682v-236h-885q-15 -2 -58 -9t-62 -9.5t-54 -7t-66.5 -6t-66.5 -1.5q-301 0 -464 171t-163 530zM387 668q0 -124 24 -213t71 -141t109.5 -75.5t145.5 -23.5q102 0 219 16v1053 q-125 19 -219 19q-84 0 -146.5 -23.5t-109.5 -75.5t-70.5 -140.5t-23.5 -213.5v-182z" />
<glyph unicode="&#x153;" horiz-adv-x="2019" d="M102 506v141q0 268 133.5 401.5t387.5 133.5q262 0 389 -142q123 142 383 142q140 0 243 -44t162 -124t87 -181t28 -227v-114h-770v-21q0 -41 2 -68.5t8.5 -60t19 -53.5t35 -42.5t54.5 -33.5t79 -19.5t107 -7.5q204 0 416 29v-197q-70 -19 -189 -33t-247 -14 q-297 0 -422 138q-131 -140 -385 -140t-387.5 133.5t-133.5 403.5zM373 506q0 -164 59 -235.5t191 -71.5q133 0 192 71t59 236v141q0 165 -59 236t-192 71q-131 0 -190.5 -71.5t-59.5 -235.5v-141zM1147 668h500v18q0 45 -4.5 80.5t-20 74.5t-42 64.5t-73 42.5t-110.5 17 q-250 0 -250 -254v-43z" />
<glyph unicode="&#x154;" horiz-adv-x="1386" d="M162 0v1522q225 10 426 10q84 0 153 -5t139.5 -19t125 -36.5t103 -59t80.5 -85.5t50 -117.5t18 -152.5v-15q0 -166 -67 -266t-195 -155l359 -621h-303l-336 563q-35 -2 -125 -2h-150v-561h-278zM440 791q79 -3 158 -3q204 0 291.5 54.5t87.5 197.5v13q0 59 -15.5 101 t-44 68.5t-77.5 41.5t-106.5 20.5t-141.5 5.5h-152v-499zM494 1616l268 305h313l-323 -305h-258z" />
<glyph unicode="&#x155;" horiz-adv-x="831" d="M150 0v1153h256v-94q140 123 393 123v-248q-104 0 -209.5 -19.5t-171.5 -50.5v-864h-268zM330 1282l268 303h315l-325 -303h-258z" />
<glyph unicode="&#x156;" horiz-adv-x="1386" d="M162 0v1522q225 10 426 10q84 0 153 -5t139.5 -19t125 -36.5t103 -59t80.5 -85.5t50 -117.5t18 -152.5v-15q0 -166 -67 -266t-195 -155l359 -621h-303l-336 563q-35 -2 -125 -2h-150v-561h-278zM440 791q79 -3 158 -3q204 0 291.5 54.5t87.5 197.5v13q0 59 -15.5 101 t-44 68.5t-77.5 41.5t-106.5 20.5t-141.5 5.5h-152v-499zM457 -422l137 289h291l-189 -289h-239z" />
<glyph unicode="&#x157;" horiz-adv-x="831" d="M150 0v1153h256v-94q140 123 393 123v-248q-104 0 -209.5 -19.5t-171.5 -50.5v-864h-268zM152 -422l137 289h291l-189 -289h-239z" />
<glyph unicode="&#x158;" horiz-adv-x="1386" d="M162 0v1522q225 10 426 10q84 0 153 -5t139.5 -19t125 -36.5t103 -59t80.5 -85.5t50 -117.5t18 -152.5v-15q0 -166 -67 -266t-195 -155l359 -621h-303l-336 563q-35 -2 -125 -2h-150v-561h-278zM246 1919h248l194 -186l197 186h248l-275 -305h-336zM440 791q79 -3 158 -3 q204 0 291.5 54.5t87.5 197.5v13q0 59 -15.5 101t-44 68.5t-77.5 41.5t-106.5 20.5t-141.5 5.5h-152v-499z" />
<glyph unicode="&#x159;" horiz-adv-x="831" d="M23 1585h249l195 -186l197 186h247l-276 -303h-336zM150 0v1153h256v-94q140 123 393 123v-248q-104 0 -209.5 -19.5t-171.5 -50.5v-864h-268z" />
<glyph unicode="&#x15a;" horiz-adv-x="1261" d="M104 1151q0 216 133.5 308.5t411.5 92.5q129 0 252 -15.5t193 -33.5v-217q-4 0 -88.5 7.5t-117.5 10t-101.5 6t-124.5 3.5q-142 0 -208.5 -33t-66.5 -121q0 -70 41 -113t154 -88l206 -84q104 -43 171 -84.5t114.5 -97t67.5 -126t20 -167.5q0 -207 -141.5 -319.5 t-398.5 -112.5q-138 0 -276.5 15t-203.5 32v219q250 -24 457 -24q141 0 206.5 43.5t65.5 144.5q0 76 -39.5 123.5t-150.5 93.5l-229 95q-175 71 -261 176t-86 266zM461 1616l270 305h313l-323 -305h-260z" />
<glyph unicode="&#x15b;" horiz-adv-x="1048" d="M94 868q0 169 112 241.5t349 72.5q91 0 201.5 -15t158.5 -30v-189q-226 21 -356 21q-111 0 -155 -18.5t-44 -76.5q0 -53 34.5 -79t148.5 -70l92 -37q191 -77 263 -153.5t73 -215.5q0 -167 -115.5 -257.5t-351.5 -90.5q-109 0 -228 15.5t-165 29.5v193q13 -1 85.5 -8.5 t151.5 -13t144 -5.5q122 0 167.5 28.5t45.5 92.5q0 58 -36.5 86.5t-168.5 81.5l-88 35q-167 66 -242.5 149t-75.5 213zM387 1282l268 303h316l-326 -303h-258z" />
<glyph unicode="&#x15c;" horiz-adv-x="1261" d="M104 1151q0 216 133.5 308.5t411.5 92.5q129 0 252 -15.5t193 -33.5v-217q-4 0 -88.5 7.5t-117.5 10t-101.5 6t-124.5 3.5q-142 0 -208.5 -33t-66.5 -121q0 -70 41 -113t154 -88l206 -84q104 -43 171 -84.5t114.5 -97t67.5 -126t20 -167.5q0 -207 -141.5 -319.5 t-398.5 -112.5q-138 0 -276.5 15t-203.5 32v219q250 -24 457 -24q141 0 206.5 43.5t65.5 144.5q0 76 -39.5 123.5t-150.5 93.5l-229 95q-175 71 -261 176t-86 266zM172 1616l277 305h333l277 -305h-248l-197 186l-194 -186h-248z" />
<glyph unicode="&#x15d;" horiz-adv-x="1048" d="M78 1282l276 303h334l277 -303h-248l-197 184l-194 -184h-248zM94 868q0 169 112 241.5t349 72.5q91 0 201.5 -15t158.5 -30v-189q-226 21 -356 21q-111 0 -155 -18.5t-44 -76.5q0 -53 34.5 -79t148.5 -70l92 -37q191 -77 263 -153.5t73 -215.5q0 -167 -115.5 -257.5 t-351.5 -90.5q-109 0 -228 15.5t-165 29.5v193q13 -1 85.5 -8.5t151.5 -13t144 -5.5q122 0 167.5 28.5t45.5 92.5q0 58 -36.5 86.5t-168.5 81.5l-88 35q-167 66 -242.5 149t-75.5 213z" />
<glyph unicode="&#x15e;" horiz-adv-x="1261" d="M104 1151q0 216 133.5 308.5t411.5 92.5q129 0 252 -15.5t193 -33.5v-217q-4 0 -88.5 7.5t-117.5 10t-101.5 6t-124.5 3.5q-142 0 -208.5 -33t-66.5 -121q0 -70 41 -113t154 -88l206 -84q104 -43 171 -84.5t114.5 -97t67.5 -126t20 -167.5q0 -207 -141.5 -319.5 t-398.5 -112.5q-138 0 -276.5 15t-203.5 32v219q250 -24 457 -24q141 0 206.5 43.5t65.5 144.5q0 76 -39.5 123.5t-150.5 93.5l-229 95q-175 71 -261 176t-86 266zM301 -422l225 289h305l-272 -289h-258z" />
<glyph unicode="&#x15f;" horiz-adv-x="1048" d="M94 868q0 169 112 241.5t349 72.5q91 0 201.5 -15t158.5 -30v-189q-226 21 -356 21q-111 0 -155 -18.5t-44 -76.5q0 -53 34.5 -79t148.5 -70l92 -37q191 -77 263 -153.5t73 -215.5q0 -167 -115.5 -257.5t-351.5 -90.5q-109 0 -228 15.5t-165 29.5v193q13 -1 85.5 -8.5 t151.5 -13t144 -5.5q122 0 167.5 28.5t45.5 92.5q0 58 -36.5 86.5t-168.5 81.5l-88 35q-167 66 -242.5 149t-75.5 213zM195 -422l227 289h305l-274 -289h-258z" />
<glyph unicode="&#x160;" horiz-adv-x="1261" d="M104 1151q0 216 133.5 308.5t411.5 92.5q129 0 252 -15.5t193 -33.5v-217q-4 0 -88.5 7.5t-117.5 10t-101.5 6t-124.5 3.5q-142 0 -208.5 -33t-66.5 -121q0 -70 41 -113t154 -88l206 -84q104 -43 171 -84.5t114.5 -97t67.5 -126t20 -167.5q0 -207 -141.5 -319.5 t-398.5 -112.5q-138 0 -276.5 15t-203.5 32v219q250 -24 457 -24q141 0 206.5 43.5t65.5 144.5q0 76 -39.5 123.5t-150.5 93.5l-229 95q-175 71 -261 176t-86 266zM186 1919h248l197 -186l194 186h250l-276 -305h-336z" />
<glyph unicode="&#x161;" horiz-adv-x="1048" d="M88 1585h248l196 -186l195 186h250l-277 -303h-335zM94 868q0 169 112 241.5t349 72.5q91 0 201.5 -15t158.5 -30v-189q-226 21 -356 21q-111 0 -155 -18.5t-44 -76.5q0 -53 34.5 -79t148.5 -70l92 -37q191 -77 263 -153.5t73 -215.5q0 -167 -115.5 -257.5t-351.5 -90.5 q-109 0 -228 15.5t-165 29.5v193q13 -1 85.5 -8.5t151.5 -13t144 -5.5q122 0 167.5 28.5t45.5 92.5q0 58 -36.5 86.5t-168.5 81.5l-88 35q-167 66 -242.5 149t-75.5 213z" />
<glyph unicode="&#x162;" horiz-adv-x="1310" d="M57 1284v238h1196v-238h-454v-1284h-287v1284h-455zM383 -422l139 289h291l-190 -289h-240z" />
<glyph unicode="&#x163;" horiz-adv-x="874" d="M47 954v199h215v293h270v-293h281v-217h-281v-631q0 -82 17.5 -104.5t89.5 -22.5q108 0 174 8v-184q-128 -33 -233 -33q-171 0 -244.5 75.5t-73.5 256.5v635zM231 -422l138 289h290l-190 -289h-238z" />
<glyph unicode="&#x164;" horiz-adv-x="1310" d="M57 1284v238h1196v-238h-454v-1284h-287v1284h-455zM211 1919h248l194 -186l197 186h248l-275 -305h-336z" />
<glyph unicode="&#x165;" horiz-adv-x="909" d="M47 954v199h215v293h270v-293h281v-217h-281v-631q0 -82 17.5 -104.5t89.5 -22.5q108 0 174 8v-184q-128 -33 -233 -33q-171 0 -244.5 75.5t-73.5 256.5v635zM637 1264l70 327h235l-131 -327h-174z" />
<glyph unicode="&#x166;" horiz-adv-x="1310" d="M57 1284v238h1196v-238h-454v-336h401v-205h-401v-743h-287v743h-399v205h399v336h-455z" />
<glyph unicode="&#x167;" horiz-adv-x="874" d="M47 633v178h215v147l-215 13v182h215v287h268v-287h283v-195h-283v-147h283v-195h-283v-311q0 -84 18 -106.5t91 -22.5q31 0 172 6v-180q-112 -31 -233 -31q-170 0 -243 75t-73 255v315z" />
<glyph unicode="&#x168;" horiz-adv-x="1497" d="M152 623v899h282v-885q0 -234 68 -329t248 -95q179 0 247 95t68 329v885h281v-899q0 -326 -152.5 -491t-443.5 -165q-293 0 -445.5 165t-152.5 491zM317 1616v57q0 273 230 273q54 0 97.5 -14.5t100.5 -51.5l93 -59q28 -18 43 -26.5t35.5 -15.5t39.5 -7q40 0 54 24.5 t14 81.5v55h166v-55q0 -274 -221 -274q-101 0 -211 71l-90 58q-67 49 -115 49q-38 0 -53 -26.5t-15 -82.5v-57h-168z" />
<glyph unicode="&#x169;" d="M145 420v733h269v-733q0 -127 33.5 -175t132.5 -48t301 77v879h270v-1153h-260v92q-228 -123 -399 -123q-87 0 -151 25t-101 64.5t-59 101t-29 121.5t-7 139zM217 1284v57q0 273 227 273q54 0 97 -14.5t104 -51.5l92 -59q38 -26 64 -37.5t55 -11.5q38 0 52 24.5t14 81.5 v56h165v-56q0 -274 -221 -274q-98 0 -211 71l-90 58q-67 49 -114 49q-38 0 -53 -26.5t-15 -82.5v-57h-166z" />
<glyph unicode="&#x16a;" horiz-adv-x="1497" d="M152 623v899h282v-885q0 -234 68 -329t248 -95q179 0 247 95t68 329v885h281v-899q0 -326 -152.5 -491t-443.5 -165q-293 0 -445.5 165t-152.5 491zM365 1667v182h770v-182h-770z" />
<glyph unicode="&#x16b;" d="M145 420v733h269v-733q0 -127 33.5 -175t132.5 -48t301 77v879h270v-1153h-260v92q-228 -123 -399 -123q-87 0 -151 25t-101 64.5t-59 101t-29 121.5t-7 139zM268 1339v181h768v-181h-768z" />
<glyph unicode="&#x16c;" horiz-adv-x="1497" d="M152 623v899h282v-885q0 -234 68 -329t248 -95q179 0 247 95t68 329v885h281v-899q0 -326 -152.5 -491t-443.5 -165q-293 0 -445.5 165t-152.5 491zM365 1919h172q10 -94 63 -133t148 -39q97 0 150 39t65 133h172q-15 -159 -115 -241.5t-272 -82.5q-170 0 -270 83 t-113 241z" />
<glyph unicode="&#x16d;" d="M145 420v733h269v-733q0 -127 33.5 -175t132.5 -48t301 77v879h270v-1153h-260v92q-228 -123 -399 -123q-87 0 -151 25t-101 64.5t-59 101t-29 121.5t-7 139zM266 1599h174q10 -93 63 -131t148 -38q97 0 149.5 37.5t65.5 131.5h172q-15 -157 -115 -239t-272 -82 q-171 0 -270.5 82t-114.5 239z" />
<glyph unicode="&#x16e;" horiz-adv-x="1497" d="M152 623v899h282v-885q0 -234 68 -329t248 -95q179 0 247 95t68 329v885h281v-899q0 -326 -152.5 -491t-443.5 -165q-293 0 -445.5 165t-152.5 491zM483 1821q0 117 75 179t194 62q117 0 189.5 -62t72.5 -179q0 -116 -72.5 -177t-189.5 -61q-119 0 -194 61t-75 177z M637 1823q0 -105 115 -105q51 0 81.5 25.5t30.5 79.5q0 102 -112 102q-115 0 -115 -102z" />
<glyph unicode="&#x16f;" d="M145 420v733h269v-733q0 -127 33.5 -175t132.5 -48t301 77v879h270v-1153h-260v92q-228 -123 -399 -123q-87 0 -151 25t-101 64.5t-59 101t-29 121.5t-7 139zM391 1495q0 116 73.5 178t192.5 62t192 -62t73 -178q0 -117 -73 -178.5t-192 -61.5t-192.5 61.5t-73.5 178.5z M545 1495q0 -104 112 -104q51 0 82 25.5t31 78.5q0 54 -31 79t-82 25q-112 0 -112 -104z" />
<glyph unicode="&#x170;" horiz-adv-x="1497" d="M152 623v899h282v-885q0 -234 68 -329t248 -95q179 0 247 95t68 329v885h281v-899q0 -326 -152.5 -491t-443.5 -165q-293 0 -445.5 165t-152.5 491zM356 1616l271 305h301l-324 -305h-248zM856 1616l270 305h301l-323 -305h-248z" />
<glyph unicode="&#x171;" d="M145 420v733h269v-733q0 -127 33.5 -175t132.5 -48t301 77v879h270v-1153h-260v92q-228 -123 -399 -123q-87 0 -151 25t-101 64.5t-59 101t-29 121.5t-7 139zM262 1282l268 303h301l-323 -303h-246zM762 1282l270 303h299l-323 -303h-246z" />
<glyph unicode="&#x172;" horiz-adv-x="1497" d="M152 623v899h282v-885q0 -234 68 -329t248 -95q179 0 247 95t68 329v885h281v-899q0 -259 -96.5 -416.5t-282.5 -210.5q-143 -60 -193.5 -106.5t-50.5 -88.5q0 -82 117 -82q13 0 164 11v-146q-98 -28 -226 -28q-137 0 -210.5 53.5t-73.5 152.5q0 57 38 112.5t111 98.5 q-241 28 -366 191t-125 459z" />
<glyph unicode="&#x173;" d="M145 420v733h269v-733q0 -127 33.5 -175t132.5 -48t301 77v879h270v-1153q-87 -35 -144.5 -65t-85.5 -55t-38.5 -43.5t-10.5 -39.5q0 -39 26 -58.5t89 -19.5q18 0 164 11v-146q-98 -28 -225 -28q-138 0 -211.5 52t-73.5 150q0 70 66 138.5t184 119.5v76 q-228 -123 -399 -123q-87 0 -151 25t-101 64.5t-59 101t-29 121.5t-7 139z" />
<glyph unicode="&#x174;" horiz-adv-x="1941" d="M84 1522h291l151 -922q4 -30 20 -136t23 -159h9q11 45 31 140.5t32 142.5l160 669h346l160 -675q49 -215 61 -277h8q10 83 43 295l154 922h285l-267 -1522h-383l-192 805q-27 129 -43 203h-4q-16 -74 -43 -203l-191 -805h-387zM528 1616l277 305h336l276 -305h-250 l-194 186l-197 -186h-248z" />
<glyph unicode="&#x175;" horiz-adv-x="1792" d="M51 1153h275l129 -623q35 -198 39 -284h10q7 24 33 126.5t43 155.5l151 482h332l151 -482q17 -53 43 -155.5t33 -126.5h10q5 98 41 284l127 623h273l-248 -1153h-354l-178 565q-45 135 -60 232h-8q-15 -97 -59 -232l-181 -565h-350zM453 1282l276 303h336l274 -303h-247 l-197 184l-195 -184h-247z" />
<glyph unicode="&#x176;" horiz-adv-x="1363" d="M35 1522h299l239 -441q62 -118 107 -235h12q9 27 24.5 61t27 57.5t32 63t27.5 53.5l239 441h287l-508 -953v-569h-278v569zM244 1616l276 305h334l276 -305h-247l-197 186l-194 -186h-248z" />
<glyph unicode="&#x177;" horiz-adv-x="1198" d="M41 1153h293l201 -612q14 -45 26.5 -94t27.5 -112t25 -102h4q47 213 76 308l183 612h280l-401 -1196q-32 -109 -66.5 -180.5t-84.5 -125t-118.5 -77t-162.5 -23.5q-152 0 -275 25v197q141 -9 217 -9q70 0 104.5 36t73.5 137l27 71zM168 1282l276 303h336l277 -303h-250 l-195 184l-196 -184h-248z" />
<glyph unicode="&#x178;" horiz-adv-x="1363" d="M35 1522h299l239 -441q62 -118 107 -235h12q9 27 24.5 61t27 57.5t32 63t27.5 53.5l239 441h287l-508 -953v-569h-278v569zM326 1645v253h227v-253h-227zM821 1645v253h226v-253h-226z" />
<glyph unicode="&#x179;" horiz-adv-x="1312" d="M109 0v260l749 1020h-725v242h1047v-262l-748 -1020h772v-240h-1095zM522 1616l269 305h313l-324 -305h-258z" />
<glyph unicode="&#x17a;" horiz-adv-x="1060" d="M82 0v242l588 692h-566v219h865v-238l-592 -700h594v-215h-889zM406 1282l270 303h313l-323 -303h-260z" />
<glyph unicode="&#x17b;" horiz-adv-x="1312" d="M109 0v260l749 1020h-725v242h1047v-262l-748 -1020h772v-240h-1095zM518 1645v256h275v-256h-275z" />
<glyph unicode="&#x17c;" horiz-adv-x="1060" d="M82 0v242l588 692h-566v219h865v-238l-592 -700h594v-215h-889zM416 1333v254h274v-254h-274z" />
<glyph unicode="&#x17d;" horiz-adv-x="1312" d="M109 0v260l749 1020h-725v242h1047v-262l-748 -1020h772v-240h-1095zM238 1921h247l195 -186l197 186h247l-276 -305h-334z" />
<glyph unicode="&#x17e;" horiz-adv-x="1060" d="M82 0v242l588 692h-566v219h865v-238l-592 -700h594v-215h-889zM119 1585h248l196 -186l195 186h250l-277 -303h-336z" />
<glyph unicode="&#x192;" horiz-adv-x="1331" d="M111 -283l22 177q91 -9 158 -9q36 0 59.5 4.5t45.5 19.5t35 46.5t20 81.5l92 659h-297l28 213h297l43 301q14 99 45.5 167t81 105.5t109 53.5t139.5 16q118 0 232 -30l-21 -174q-102 6 -151 6q-80 0 -115 -29t-49 -125l-43 -291h327l-26 -213h-332l-92 -669 q-13 -98 -45.5 -166t-82 -104.5t-107 -52t-132.5 -15.5q-131 0 -241 28z" />
<glyph unicode="&#x1fa;" horiz-adv-x="1443" d="M47 0l461 1522h428l461 -1522h-301l-131 426h-490l-135 -426h-293zM459 1794q0 117 74.5 178.5t193.5 61.5q118 0 190 -61.5t72 -178.5q0 -116 -72.5 -178t-189.5 -62q-119 0 -193.5 62t-74.5 178zM528 662h381l-127 419q-28 91 -53 240h-18q-34 -173 -54 -240zM580 2064 l268 306h313l-323 -306h-258zM612 1794q0 -102 115 -102q51 0 82 24.5t31 77.5q0 54 -31 79t-82 25q-115 0 -115 -104z" />
<glyph unicode="&#x1fb;" horiz-adv-x="1181" d="M94 299v43q0 65 13.5 116t37 87.5t62.5 62.5t81 42t101.5 25t117 12t132.5 3h137v72q0 65 -8 100.5t-35.5 58.5t-71.5 30t-124 7q-163 0 -363 -22v182q50 20 167 42t241 22q111 0 190 -16t133 -46.5t85 -82.5t44 -117.5t13 -157.5v-762h-250v76q-65 -44 -159 -75.5 t-206 -31.5q-164 0 -251 82.5t-87 247.5zM348 1468q0 116 74.5 178t193.5 62q117 0 190 -62t73 -178q0 -117 -72.5 -178t-190.5 -61q-120 0 -194 61t-74 178zM356 301q0 -75 42 -105t120 -30q74 0 149 23t115 47v288h-143q-65 0 -106.5 -3.5t-78.5 -14t-56.5 -30t-30.5 -50 t-11 -76.5v-49zM479 1741l269 305h315l-326 -305h-258zM502 1468q0 -104 114 -104q51 0 82 25.5t31 78.5q0 54 -31 79.5t-82 25.5q-114 0 -114 -105z" />
<glyph unicode="&#x1fc;" horiz-adv-x="2041" d="M78 0l450 1522h1409v-238h-682v-387h641v-229h-641v-432h682v-236h-966v426h-469l-133 -426h-291zM555 659h416v656h-228q-10 -37 -29.5 -112.5t-29.5 -112.5zM1036 1616l271 305h313l-324 -305h-260z" />
<glyph unicode="&#x1fd;" horiz-adv-x="1916" d="M94 299v43q0 65 13.5 116t37 87.5t62.5 62.5t81 42t101.5 25t117 12t132.5 3h137v72q0 63 -8 98t-34.5 59t-71.5 31.5t-125 7.5q-141 0 -363 -20v180q50 20 167 42t241 22q153 0 235 -26t131 -79q131 103 350 103q112 0 200.5 -29t148 -80t98 -124t55.5 -157.5t17 -183.5 v-114h-770v-21q0 -48 3 -79.5t12.5 -67.5t30 -58.5t53.5 -42t84.5 -28.5t121.5 -9q201 0 417 29v-197q-180 -47 -438 -47q-308 0 -434 138q-108 -74 -216.5 -106t-248.5 -32q-164 0 -251 81.5t-87 246.5zM356 301q0 -75 41.5 -105t118.5 -30q75 0 149 22.5t117 47.5v288 h-143q-65 0 -106.5 -3.5t-78.5 -14t-56.5 -30t-30.5 -50t-11 -76.5v-49zM827 1282l269 303h313l-324 -303h-258zM1049 668h499v18q0 45 -4.5 80.5t-20 74.5t-42 64.5t-74 42.5t-111.5 17q-63 0 -109 -17t-72 -43t-41.5 -65t-20 -74.5t-4.5 -79.5v-18z" />
<glyph unicode="&#x1fe;" horiz-adv-x="1464" d="M29 0l172 233q-95 170 -95 439v178q0 358 163 530t462 172q228 0 373 -96l49 66h268l-166 -226q103 -165 103 -446v-178q0 -360 -163.5 -532.5t-463.5 -172.5q-232 0 -381 101l-49 -68h-272zM391 672q0 -94 12 -164l541 731q-81 64 -213 64q-165 0 -252.5 -105.5 t-87.5 -349.5v-176zM512 287q80 -72 219 -72q165 0 253.5 106t88.5 351v176q0 96 -16 178zM541 1618l270 303h313l-323 -303h-260z" />
<glyph unicode="&#x1ff;" horiz-adv-x="1249" d="M20 -20l156 202q-72 129 -72 324v141q0 268 133 401.5t388 133.5q155 0 272 -54l53 70h248l-147 -194q94 -133 94 -357v-141q0 -270 -132.5 -403.5t-387.5 -133.5q-184 0 -310 72l-45 -61h-250zM373 506q0 -44 2 -64l370 488q-47 20 -120 20q-132 0 -192 -70t-60 -233 v-141zM453 1282l270 303h313l-323 -303h-260zM467 238q53 -37 158 -37q133 0 192.5 70.5t59.5 234.5v141q0 53 -11 117z" />
<glyph unicode="&#x218;" horiz-adv-x="1261" d="M104 1151q0 216 133.5 308.5t411.5 92.5q129 0 252 -15.5t193 -33.5v-217q-4 0 -88.5 7.5t-117.5 10t-101.5 6t-124.5 3.5q-142 0 -208.5 -33t-66.5 -121q0 -70 41 -113t154 -88l206 -84q104 -43 171 -84.5t114.5 -97t67.5 -126t20 -167.5q0 -207 -141.5 -319.5 t-398.5 -112.5q-138 0 -276.5 15t-203.5 32v219q250 -24 457 -24q141 0 206.5 43.5t65.5 144.5q0 76 -39.5 123.5t-150.5 93.5l-229 95q-175 71 -261 176t-86 266zM377 -422l137 289h291l-189 -289h-239z" />
<glyph unicode="&#x219;" horiz-adv-x="1048" d="M94 868q0 169 112 241.5t349 72.5q91 0 201.5 -15t158.5 -30v-189q-226 21 -356 21q-111 0 -155 -18.5t-44 -76.5q0 -53 34.5 -79t148.5 -70l92 -37q191 -77 263 -153.5t73 -215.5q0 -167 -115.5 -257.5t-351.5 -90.5q-109 0 -228 15.5t-165 29.5v193q13 -1 85.5 -8.5 t151.5 -13t144 -5.5q122 0 167.5 28.5t45.5 92.5q0 58 -36.5 86.5t-168.5 81.5l-88 35q-167 66 -242.5 149t-75.5 213zM252 -422l137 289h291l-188 -289h-240z" />
<glyph unicode="&#x21a;" horiz-adv-x="1310" d="M57 1284v238h1196v-238h-454v-1284h-287v1284h-455zM385 -422l137 289h291l-188 -289h-240z" />
<glyph unicode="&#x21b;" horiz-adv-x="874" d="M47 954v199h215v293h270v-293h281v-217h-281v-631q0 -82 17.5 -104.5t89.5 -22.5q108 0 174 8v-184q-128 -33 -233 -33q-171 0 -244.5 75.5t-73.5 256.5v635zM248 -422l137 289h291l-189 -289h-239z" />
<glyph unicode="&#x2c6;" horiz-adv-x="1026" d="M70 1282l276 303h334l276 -303h-247l-197 184l-195 -184h-247z" />
<glyph unicode="&#x2da;" horiz-adv-x="923" d="M197 1495q0 116 74.5 178t193.5 62q117 0 189.5 -62t72.5 -178q0 -117 -72 -178.5t-190 -61.5q-119 0 -193.5 61.5t-74.5 178.5zM350 1495q0 -104 115 -104q51 0 82 25.5t31 78.5q0 54 -31 79t-82 25q-115 0 -115 -104z" />
<glyph unicode="&#x2dc;" horiz-adv-x="995" d="M68 1284v57q0 273 227 273q54 0 98 -15t103 -51l92 -59q73 -49 119 -49q39 0 53 24.5t14 81.5v56h164v-56q0 -274 -219 -274q-100 0 -213 71l-90 58q-67 49 -113 49q-39 0 -53 -26t-14 -83v-57h-168z" />
<glyph unicode="&#x1e80;" horiz-adv-x="1941" d="M84 1522h291l151 -922q4 -30 20 -136t23 -159h9q11 45 31 140.5t32 142.5l160 669h346l160 -675q49 -215 61 -277h8q10 83 43 295l154 922h285l-267 -1522h-383l-192 805q-27 129 -43 203h-4q-16 -74 -43 -203l-191 -805h-387zM592 1921h313l269 -305h-259z" />
<glyph unicode="&#x1e81;" horiz-adv-x="1792" d="M51 1153h275l129 -623q35 -198 39 -284h10q7 24 33 126.5t43 155.5l151 482h332l151 -482q17 -53 43 -155.5t33 -126.5h10q5 98 41 284l127 623h273l-248 -1153h-354l-178 565q-45 135 -60 232h-8q-15 -97 -59 -232l-181 -565h-350zM489 1585h316l268 -303h-258z" />
<glyph unicode="&#x1e82;" horiz-adv-x="1941" d="M84 1522h291l151 -922q4 -30 20 -136t23 -159h9q11 45 31 140.5t32 142.5l160 669h346l160 -675q49 -215 61 -277h8q10 83 43 295l154 922h285l-267 -1522h-383l-192 805q-27 129 -43 203h-4q-16 -74 -43 -203l-191 -805h-387zM813 1616l270 305h314l-324 -305h-260z" />
<glyph unicode="&#x1e83;" horiz-adv-x="1792" d="M51 1153h275l129 -623q35 -198 39 -284h10q7 24 33 126.5t43 155.5l151 482h332l151 -482q17 -53 43 -155.5t33 -126.5h10q5 98 41 284l127 623h273l-248 -1153h-354l-178 565q-45 135 -60 232h-8q-15 -97 -59 -232l-181 -565h-350zM729 1282l268 303h314l-324 -303h-258 z" />
<glyph unicode="&#x1e84;" horiz-adv-x="1941" d="M84 1522h291l151 -922q4 -30 20 -136t23 -159h9q11 45 31 140.5t32 142.5l160 669h346l160 -675q49 -215 61 -277h8q10 83 43 295l154 922h285l-267 -1522h-383l-192 805q-27 129 -43 203h-4q-16 -74 -43 -203l-191 -805h-387zM610 1645v253h230v-253h-230zM1106 1645 v253h227v-253h-227z" />
<glyph unicode="&#x1e85;" horiz-adv-x="1792" d="M51 1153h275l129 -623q35 -198 39 -284h10q7 24 33 126.5t43 155.5l151 482h332l151 -482q17 -53 43 -155.5t33 -126.5h10q5 98 41 284l127 623h273l-248 -1153h-354l-178 565q-45 135 -60 232h-8q-15 -97 -59 -232l-181 -565h-350zM535 1319v254h227v-254h-227z M1030 1319v254h225v-254h-225z" />
<glyph unicode="&#x1ef2;" horiz-adv-x="1363" d="M35 1522h299l239 -441q62 -118 107 -235h12q9 27 24.5 61t27 57.5t32 63t27.5 53.5l239 441h287l-508 -953v-569h-278v569zM293 1919h313l268 -305h-258z" />
<glyph unicode="&#x1ef3;" horiz-adv-x="1198" d="M41 1153h293l201 -612q14 -45 26.5 -94t27.5 -112t25 -102h4q47 213 76 308l183 612h280l-401 -1196q-32 -109 -66.5 -180.5t-84.5 -125t-118.5 -77t-162.5 -23.5q-152 0 -275 25v197q141 -9 217 -9q70 0 104.5 36t73.5 137l27 71zM219 1585h316l268 -303h-258z" />
<glyph unicode="&#x2000;" horiz-adv-x="1185" />
<glyph unicode="&#x2001;" horiz-adv-x="2370" />
<glyph unicode="&#x2002;" horiz-adv-x="1185" />
<glyph unicode="&#x2003;" horiz-adv-x="2370" />
<glyph unicode="&#x2004;" horiz-adv-x="790" />
<glyph unicode="&#x2005;" horiz-adv-x="592" />
<glyph unicode="&#x2006;" horiz-adv-x="395" />
<glyph unicode="&#x2007;" horiz-adv-x="395" />
<glyph unicode="&#x2008;" horiz-adv-x="296" />
<glyph unicode="&#x2009;" horiz-adv-x="474" />
<glyph unicode="&#x200a;" horiz-adv-x="131" />
<glyph unicode="&#x2010;" horiz-adv-x="790" d="M135 496v213h520v-213h-520z" />
<glyph unicode="&#x2011;" horiz-adv-x="790" d="M135 496v213h520v-213h-520z" />
<glyph unicode="&#x2012;" horiz-adv-x="790" d="M135 496v213h520v-213h-520z" />
<glyph unicode="&#x2013;" horiz-adv-x="1001" d="M135 496v213h731v-213h-731z" />
<glyph unicode="&#x2014;" horiz-adv-x="1323" d="M135 496v213h1055v-213h-1055z" />
<glyph unicode="&#x2018;" horiz-adv-x="450" d="M41 1090l174 501h195l-111 -501h-258z" />
<glyph unicode="&#x2019;" horiz-adv-x="450" d="M41 1090l111 501h258l-174 -501h-195z" />
<glyph unicode="&#x201a;" horiz-adv-x="450" d="M41 -199l111 502h258l-174 -502h-195z" />
<glyph unicode="&#x201c;" horiz-adv-x="888" d="M41 1090l174 501h195l-111 -501h-258zM479 1090l174 501h195l-111 -501h-258z" />
<glyph unicode="&#x201d;" horiz-adv-x="888" d="M41 1090l111 501h258l-174 -501h-195zM479 1090l111 501h258l-174 -501h-195z" />
<glyph unicode="&#x201e;" horiz-adv-x="888" d="M41 -199l111 502h258l-174 -502h-195zM479 -199l111 502h258l-174 -502h-195z" />
<glyph unicode="&#x2026;" horiz-adv-x="1806" d="M150 0v315h272v-315h-272zM768 0v315h270v-315h-270zM1384 0v315h273v-315h-273z" />
<glyph unicode="&#x202f;" horiz-adv-x="474" />
<glyph unicode="&#x2039;" horiz-adv-x="827" d="M102 596l324 440h293l-313 -440l313 -444h-293z" />
<glyph unicode="&#x203a;" horiz-adv-x="827" d="M106 152l314 444l-314 440h293l324 -440l-324 -444h-293z" />
<glyph unicode="&#x205f;" horiz-adv-x="592" />
<glyph unicode="&#x20a1;" horiz-adv-x="1040" d="M119 502v149q0 359 233 477v265h172v-217q37 6 92 6h48v211h172v-230q82 -11 122 -24v-205q-7 0 -72.5 5.5t-124.5 9t-112 3.5q-67 0 -112 -12.5t-80.5 -44.5t-52.5 -92.5t-17 -151.5v-149q0 -90 17 -150t52.5 -93t81 -46.5t111.5 -13.5q103 0 309 16v-203 q-33 -10 -122 -22v-223h-172v204q-20 -2 -54 -2q-48 0 -86 6v-208h-172v256q-233 118 -233 479z" />
<glyph unicode="&#x20a3;" horiz-adv-x="1259" d="M82 289v190h102v1043h969v-240h-682v-385h647v-233h-647v-185h377v-190h-377v-289h-287v289h-102z" />
<glyph unicode="&#x20a4;" horiz-adv-x="1351" d="M133 494v157h158v148h-158v157h158v68q0 141 23.5 236t80 163t152.5 98.5t241 30.5q233 0 418 -43v-221q-226 27 -381 27q-87 0 -137 -13t-77 -50.5t-34.5 -87t-7.5 -140.5v-68h469v-157h-469v-148h469v-157h-469v-64q0 -118 -61 -201h698v-229h-1009v193q94 97 94 237 v64h-158z" />
<glyph unicode="&#x20a7;" horiz-adv-x="1497" d="M39 944v207h170v371q242 10 444 10q110 0 196 -9t169.5 -33.5t141.5 -66t99.5 -110.5t55.5 -162h160v-207h-158q-12 -97 -52 -169t-97 -115t-140 -69t-166 -35t-190 -9q-119 0 -185 2v-549h-278v944h-170zM487 791q88 -3 181 -3q200 0 287 50t87 194v23q-1 74 -23.5 121 t-73 72t-114.5 33.5t-165 8.5h-179v-499z" />
<glyph unicode="&#x20ac;" horiz-adv-x="1386" d="M127 520v158h115v164h-115v157h121q12 127 49 223t92 158.5t134 101t168 54.5t200 16q90 0 196 -13t170 -28v-227q-238 19 -348 19q-173 0 -261.5 -66.5t-110.5 -237.5h649l-41 -157h-617v-164h568l-45 -158h-514q22 -170 111 -236.5t261 -66.5q111 0 348 19v-230 q-61 -14 -168 -26.5t-198 -12.5q-111 0 -200 16t-168 54.5t-134 101t-92 158.5t-49 223h-121z" />
<glyph unicode="&#x2122;" horiz-adv-x="1906" d="M84 1376v154h684v-154h-242v-678h-200v678h-242zM893 698v832h207l166 -266q32 -52 51 -97q13 19 28.5 51t24.5 46l168 266h207v-832h-195v414q0 56 4 150q-45 -87 -63 -115l-113 -166h-121l-110 166q-24 37 -66 115q4 -94 4 -150v-414h-192z" />
<glyph unicode="&#x25fc;" horiz-adv-x="1157" d="M0 0v1157h1157v-1157h-1157z" />
</font>
</defs>
</svg>
